  0
SECTION
  2
HEADER
  9
$ACADVER
  1
AC1014
  9
$ACADMAINTVER
 70
     0
  9
$DWGCODEPAGE
  3
ANSI_932
  9
$INSBASE
 10
0.0
 20
0.0
 30
0.0
  9
$EXTMIN
 10
-107.504066467285
 20
-153.668301595415
  9
$EXTMAX
 10
500.069213867188
 20
121.493722248621
  9
$LIMMIN
 10
-107.504066467285
 20
-153.668301595415
  9
$LIMMAX
 10
500.069213867188
 20
121.493722248621
  9
$ORTHOMODE
 70
     0
  9
$REGENMODE
 70
     1
  9
$FILLMODE
 70
     1
  9
$QTEXTMODE
 70
     0
  9
$MIRRTEXT
 70
     1
  9
$DRAGMODE
 70
     2
  9
$LTSCALE
 40
1.0
  9
$OSMODE
 70
     0
  9
$ATTMODE
 70
     1
  9
$TEXTSIZE
 40
3.0
  9
$TRACEWID
 40
0.5
  9
$TEXTSTYLE
  7
BIGFONT
  9
$CLAYER
  8
0
  9
$CELTYPE
  6
BYLAYER
  9
$CECOLOR
 62
   256
  9
$CELTSCALE
 40
1.0
  9
$DELOBJ
 70
     1
  9
$DISPSILH
 70
     0
  9
$DIMSCALE
 40
1.0
  9
$DIMASZ
 40
3.0
  9
$DIMEXO
 40
1.0
  9
$DIMDLI
 40
5.0
  9
$DIMRND
 40
0.0
  9
$DIMDLE
 40
1.0
  9
$DIMEXE
 40
2.0
  9
$DIMTP
 40
0.0
  9
$DIMTM
 40
0.0
  9
$DIMTXT
 40
2.70000004768372
  9
$DIMCEN
 40
2.0
  9
$DIMTSZ
 40
0.0
  9
$DIMTOL
 70
     0
  9
$DIMLIM
 70
     0
  9
$DIMTIH
 70
     0
  9
$DIMTOH
 70
     0
  9
$DIMSE1
 70
     0
  9
$DIMSE2
 70
     0
  9
$DIMTAD
 70
     1
  9
$DIMZIN
 70
     8
  9
$DIMBLK
  1

  9
$DIMASO
 70
     1
  9
$DIMSHO
 70
     1
  9
$DIMPOST
  1

  9
$DIMAPOST
  1

  9
$DIMALT
 70
     0
  9
$DIMALTD
 70
     4
  9
$DIMALTF
 40
25.4
  9
$DIMLFAC
 40
1.0
  9
$DIMTOFL
 70
     1
  9
$DIMTVP
 40
1.0
  9
$DIMTIX
 70
     0
  9
$DIMSOXD
 70
     0
  9
$DIMSAH
 70
     0
  9
$DIMBLK1
  1

  9
$DIMBLK2
  1

  9
$DIMSTYLE
  2
ISO-25
  9
$DIMCLRD
 70
     0
  9
$DIMCLRE
 70
     0
  9
$DIMCLRT
 70
     0
  9
$DIMTFAC
 40
1.0
  9
$DIMGAP
 40
0.5
  9
$DIMJUST
 70
     0
  9
$DIMSD1
 70
     0
  9
$DIMSD2
 70
     0
  9
$DIMTOLJ
 70
     1
  9
$DIMTZIN
 70
     1
  9
$DIMALTZ
 70
     0
  9
$DIMALTTZ
 70
     0
  9
$DIMFIT
 70
     3
  9
$DIMUPT
 70
     0
  9
$DIMUNIT
 70
     2
  9
$DIMDEC
 70
     1
  9
$DIMTDEC
 70
     3
  9
$DIMALTU
 70
     8
  9
$DIMALTTD
 70
     4
  9
$DIMTXSTY
  7
STANDARD
  9
$DIMAUNIT
 70
     0
  9
$LUNITS
 70
     2
  9
$LUPREC
 70
     4
  9
$AXISMODE
 70
     0
  9
$AXISUNIT
 10
0.0
 20
0.0
  9
$SKETCHINC
 40
1.0
  9
$FILLETRAD
 40
0.0
  9
$AUNITS
 70
     0
  9
$AUPREC
 70
     0
  9
$MENU
  1
.
  9
$ELEVATION
 40
0.0
  9
$PELEVATION
 40
0.0
  9
$THICKNESS
 40
0.0
  9
$LIMCHECK
 70
     0
  9
$BLIPMODE
 70
     1
  9
$CHAMFERA
 40
0.0
  9
$CHAMFERB
 40
0.0
  9
$CHAMFERC
 40
0.0
  9
$CHAMFERD
 40
0.0
  9
$SKPOLY
 70
     0
  9
$TDCREATE
 40
2454821.69275463
  9
$TDUPDATE
 40
2454821.69275463
  9
$TDINDWG
 40
0.0
  9
$TDUSRTIMER
 40
0.0
  9
$USRTIMER
 70
     1
  9
$ANGBASE
 50
0.0
  9
$ANGDIR
 70
     0
  9
$PDMODE
 70
     0
  9
$PDSIZE
 40
0.0
  9
$PLINEWID
 40
0.0
  9
$COORDS
 70
     0
  9
$SPLFRAME
 70
     0
  9
$SPLINETYPE
 70
     6
  9
$SPLINESEGS
 70
     8
  9
$ATTDIA
 70
     0
  9
$ATTREQ
 70
     1
  9
$HANDLING
 70
     1
  9
$HANDSEED
  5
345
  9
$SURFTAB1
 70
     6
  9
$SURFTAB2
 70
     6
  9
$SURFTYPE
 70
     6
  9
$SURFU
 70
     6
  9
$SURFV
 70
     6
  9
$UCSNAME
  2

  9
$UCSORG
 10
0.0
 20
0.0
 30
0.0
  9
$UCSXDIR
 10
1.0
 20
0.0
 30
0.0
  9
$UCSYDIR
 10
0.0
 20
1.0
 30
0.0
  9
$PUCSNAME
  2

  9
$PUCSORG
 10
0.0
 20
1.0
 30
0.0
  9
$PUCSXDIR
 10
1.0
 20
0.0
 30
0.0
  9
$PUCSYDIR
 10
0.0
 20
1.0
 30
0.0
  9
$USERI1
 70
     0
  9
$USERI2
 70
     0
  9
$USERI3
 70
     0
  9
$USERI4
 70
     0
  9
$USERI5
 70
     0
  9
$USERR1
 40
0.0
  9
$USERR2
 40
0.0
  9
$USERR3
 40
0.0
  9
$USERR4
 40
0.0
  9
$USERR5
 40
0.0
  9
$WORLDVIEW
 70
     1
  9
$SHADEDGE
 70
     3
  9
$SHADEDIF
 70
    70
  9
$TILEMODE
 70
     1
  9
$MAXACTVP
 70
    16
  9
$PINSBASE
 10
0.0
 20
1.0
 30
0.0
  9
$PLIMCHECK
 70
     0
  9
$PEXTMIN
 10
1.00000000000000E+020
 20
1.00000000000000E+020
 30
1.00000000000000E+020
  9
$PEXTMAX
 10
-1.00000000000000E+020
 20
-1.00000000000000E+020
 30
-1.00000000000000E+020
  9
$PLIMMIN
 10
-107.504066467285
 20
-153.668301595415
  9
$PLIMMAX
 10
500.069213867188
 20
121.493722248621
  9
$UNITMODE
 70
     0
  9
$VISRETAIN
 70
     0
  9
$PLINEGEN
 70
     0
  9
$PSLTSCALE
 70
     0
  9
$TREEDEPTH
 70
  3020
  9
$PICKSTYLE
 70
     1
  9
$CMLSTYLE
  2
STANDARD
  9
$CMLJUST
 70
     0
  9
$CMLSCALE
 40
1.0
  9
$PROXYGRAPHICS
 70
     1
  9
$MEASUREMENT
 70
     1
  0
ENDSEC
  0
SECTION
  2
CLASSES
  0
CLASS
  1
LWPOLYLINE
  2
AcDbPolyline
  3
"AutoCAD"
 90
        0
280
     0
281
     1
  0
CLASS
  1
DICTIONARYVAR
  2
AcDbDictionaryVar
  3
"AutoCAD"
 90
        0
280
     0
281
     1
  0
CLASS
  1
HATCH
  2
AcDbHatch
  3
"AutoCAD"
 90
        0
280
     0
281
     1
  0
ENDSEC
  0
SECTION
  2
TABLES
  0
TABLE
  2
VPORT
  5
8
100
AcDbSymbolTable
 70
     1
  0
VPORT
  5
338
100
AcDbSymbolTableRecord
100
AcDbViewportTableRecord
  2
*ACTIVE
 70
     0
 10
0.0
 20
0.0
 11
1.0
 21
1.0
 12
196.282573699951
 22
-16.0872896733968
 13
0.0
 23
0.0
 14
0.0
 24
0.0
 15
0.0
 25
0.0
 16
0.0
 26
0.0
 36
1.0
 17
0.0
 27
0.0
 37
0.0
 40
607.573280334473
 41
1.5
 42
50.0
 43
0.0
 44
0.0
 50
0.0
 51
0.0
 71
     0
 72
   100
 73
     1
 74
     1
 75
     0
 76
     0
 77
     0
 78
     0
  0
ENDTAB
  0
TABLE
  2
LTYPE
  5
5
100
AcDbSymbolTable
 70
    20
  0
LTYPE
  5
339
100
AcDbSymbolTableRecord
100
AcDbLinetypeTableRecord
  2
BYBLOCK
 70
     0
  3

 72
    65
 73
     0
 40
0.0
  0
LTYPE
  5
33A
100
AcDbSymbolTableRecord
100
AcDbLinetypeTableRecord
  2
BYLAYER
 70
     0
  3

 72
    65
 73
     0
 40
0.0
  0
LTYPE
  5
33B
100
AcDbSymbolTableRecord
100
AcDbLinetypeTableRecord
  2
CONTINUOUS
 70
    64
  3
solid line
 72
    65
 73
     0
 40
0.0
  0
LTYPE
  5
33C
100
AcDbSymbolTableRecord
100
AcDbLinetypeTableRecord
  2
DASHED
 70
    64
  3
-- -- -- -- -- -- -- -- -- -- 
 72
    65
 73
     2
 40
9.0
 49
6.0
 74
     0
 49
-3.0
 74
     0
  0
LTYPE
  5
33D
100
AcDbSymbolTableRecord
100
AcDbLinetypeTableRecord
  2
CENTER
 70
    64
  3
--- - --- - --- - --- - --- - 
 72
    65
 73
     4
 40
18.0
 49
9.0
 74
     0
 49
-3.0
 74
     0
 49
3.0
 74
     0
 49
-3.0
 74
     0
  0
ENDTAB
  0
TABLE
  2
LAYER
  5
2
100
AcDbSymbolTable
 70
    20
  0
LAYER
  5
33E
100
AcDbSymbolTableRecord
100
AcDbLayerTableRecord
  2
0
 70
    64
 62
     7
  6
CONTINUOUS
  0
LAYER
  5
25
100
AcDbSymbolTableRecord
100
AcDbLayerTableRecord
  2
1
 70
    64
 62
     7
  6
CONTINUOUS
  0
LAYER
  5
88
100
AcDbSymbolTableRecord
100
AcDbLayerTableRecord
  2
3
 70
    64
 62
     7
  6
CONTINUOUS
  0
LAYER
  5
149
100
AcDbSymbolTableRecord
100
AcDbLayerTableRecord
  2
4
 70
    64
 62
     7
  6
CONTINUOUS
  0
LAYER
  5
33F
100
AcDbSymbolTableRecord
100
AcDbLayerTableRecord
  2
DEFPOINTS
 70
     0
 62
    -7
  6
CONTINUOUS
  0
ENDTAB
  0
TABLE
  2
STYLE
  5
3
100
AcDbSymbolTable
 70
     4
  0
STYLE
  5
340
100
AcDbSymbolTableRecord
100
AcDbTextStyleTableRecord
  2
STANDARD
 70
    64
 40
0.0
 41
1.0
 50
0.0
 71
     0
 42
9.0
  3
monotxt
  4

  0
STYLE
  5
341
100
AcDbSymbolTableRecord
100
AcDbTextStyleTableRecord
  2
BIGFONT
 70
    64
 40
0.0
 41
1.0
 50
0.0
 71
     0
 42
9.0
  3
monotxt
  4
bigfont
  0
ENDTAB
  0
TABLE
  2
VIEW
  5
6
100
AcDbSymbolTable
 70
     0
  0
ENDTAB
  0
TABLE
  2
UCS
  5
7
100
AcDbSymbolTable
 70
     0
  0
ENDTAB
  0
TABLE
  2
APPID
  5
9
100
AcDbSymbolTable
 70
     1
  0
APPID
  5
342
100
AcDbSymbolTableRecord
100
AcDbRegAppTableRecord
  2
ACAD
 70
     0
  0
ENDTAB
  0
TABLE
  2
DIMSTYLE
  5
A
100
AcDbSymbolTable
 70
     8
  0
DIMSTYLE
105
343
100
AcDbSymbolTableRecord
100
AcDbDimStyleTableRecord
  2
ISO-25
 70
     0
  3

  4

  5

  6

  7

 40
1.0
 41
3.0
 42
1.0
 43
5.0
 44
2.0
 45
0.0
 46
1.0
 47
0.0
 48
0.0
140
2.70000004768372
141
2.0
142
0.0
143
25.4
144
1.0
145
1.0
146
1.0
147
0.5
 71
     0
 72
     0
 73
     0
 74
     0
 75
     0
 76
     0
 77
     1
 78
     8
170
     0
171
     0
172
     1
173
     0
174
     0
175
     0
176
     0
177
     0
178
     0
270
     2
271
     1
272
     3
273
     8
274
     4
340
340
275
     0
280
     0
281
     0
282
     0
283
     1
284
     1
285
     0
286
     0
287
     3
288
     0
  0
DIMSTYLE
105
344
100
AcDbSymbolTableRecord
100
AcDbDimStyleTableRecord
  2
ISO-25_0-333333
 70
     0
  3

  4

  5

  6

  7

 40
1.0
 41
9.0
 42
3.0
 43
15.0
 44
6.0
 45
0.0
 46
3.0
 47
0.0
 48
0.0
140
8.10000014305115
141
6.0
142
0.0
143
25.4
144
1.0
145
1.0
146
1.0
147
1.5
 71
     0
 72
     0
 73
     0
 74
     0
 75
     0
 76
     0
 77
     1
 78
     8
170
     0
171
     0
172
     1
173
     0
174
     0
175
     0
176
     0
177
     0
178
     0
270
     2
271
     1
272
     3
273
     8
274
     4
340
340
275
     0
280
     0
281
     0
282
     0
283
     1
284
     1
285
     0
286
     0
287
     3
288
     0
  0
ENDTAB
  0
TABLE
  2
BLOCK_RECORD
  5
1
100
AcDbSymbolTable
 70
     2
  0
BLOCK_RECORD
  5
20
100
AcDbSymbolTableRecord
100
AcDbBlockTableRecord
  2
*MODEL_SPACE
  0
BLOCK_RECORD
  5
22
100
AcDbSymbolTableRecord
100
AcDbBlockTableRecord
  2
*PAPER_SPACE
  0
BLOCK_RECORD
  5
14D
100
AcDbSymbolTableRecord
100
AcDbBlockTableRecord
  2
MARK1_1
  0
BLOCK_RECORD
  5
9B
100
AcDbSymbolTableRecord
100
AcDbBlockTableRecord
  2
*D1
  0
BLOCK_RECORD
  5
AB
100
AcDbSymbolTableRecord
100
AcDbBlockTableRecord
  2
*D2
  0
BLOCK_RECORD
  5
BB
100
AcDbSymbolTableRecord
100
AcDbBlockTableRecord
  2
*D3
  0
BLOCK_RECORD
  5
C9
100
AcDbSymbolTableRecord
100
AcDbBlockTableRecord
  2
*D4
  0
BLOCK_RECORD
  5
D9
100
AcDbSymbolTableRecord
100
AcDbBlockTableRecord
  2
*D5
  0
BLOCK_RECORD
  5
E9
100
AcDbSymbolTableRecord
100
AcDbBlockTableRecord
  2
*D6
  0
BLOCK_RECORD
  5
F9
100
AcDbSymbolTableRecord
100
AcDbBlockTableRecord
  2
*D7
  0
BLOCK_RECORD
  5
109
100
AcDbSymbolTableRecord
100
AcDbBlockTableRecord
  2
*D8
  0
BLOCK_RECORD
  5
11B
100
AcDbSymbolTableRecord
100
AcDbBlockTableRecord
  2
*D9
  0
BLOCK_RECORD
  5
129
100
AcDbSymbolTableRecord
100
AcDbBlockTableRecord
  2
*D10
  0
BLOCK_RECORD
  5
139
100
AcDbSymbolTableRecord
100
AcDbBlockTableRecord
  2
*D11
  0
BLOCK_RECORD
  5
15C
100
AcDbSymbolTableRecord
100
AcDbBlockTableRecord
  2
*D12
  0
BLOCK_RECORD
  5
1B7
100
AcDbSymbolTableRecord
100
AcDbBlockTableRecord
  2
*D13
  0
BLOCK_RECORD
  5
1C7
100
AcDbSymbolTableRecord
100
AcDbBlockTableRecord
  2
*D14
  0
BLOCK_RECORD
  5
1D7
100
AcDbSymbolTableRecord
100
AcDbBlockTableRecord
  2
*D15
  0
BLOCK_RECORD
  5
1E9
100
AcDbSymbolTableRecord
100
AcDbBlockTableRecord
  2
*D16
  0
BLOCK_RECORD
  5
1F9
100
AcDbSymbolTableRecord
100
AcDbBlockTableRecord
  2
*D17
  0
BLOCK_RECORD
  5
207
100
AcDbSymbolTableRecord
100
AcDbBlockTableRecord
  2
*D18
  0
BLOCK_RECORD
  5
236
100
AcDbSymbolTableRecord
100
AcDbBlockTableRecord
  2
*D19
  0
BLOCK_RECORD
  5
245
100
AcDbSymbolTableRecord
100
AcDbBlockTableRecord
  2
*D20
  0
BLOCK_RECORD
  5
254
100
AcDbSymbolTableRecord
100
AcDbBlockTableRecord
  2
*D21
  0
BLOCK_RECORD
  5
262
100
AcDbSymbolTableRecord
100
AcDbBlockTableRecord
  2
*D22
  0
BLOCK_RECORD
  5
2F6
100
AcDbSymbolTableRecord
100
AcDbBlockTableRecord
  2
*D23
  0
BLOCK_RECORD
  5
30A
100
AcDbSymbolTableRecord
100
AcDbBlockTableRecord
  2
*D24
  0
BLOCK_RECORD
  5
29
100
AcDbSymbolTableRecord
100
AcDbBlockTableRecord
  2
M4テックス13_0001
  0
BLOCK_RECORD
  5
6E
100
AcDbSymbolTableRecord
100
AcDbBlockTableRecord
  2
あ_0002
  0
BLOCK_RECORD
  5
16E
100
AcDbSymbolTableRecord
100
AcDbBlockTableRecord
  2
M4テックス13_0003
  0
BLOCK_RECORD
  5
221
100
AcDbSymbolTableRecord
100
AcDbBlockTableRecord
  2
あ_0004
  0
BLOCK_RECORD
  5
270
100
AcDbSymbolTableRecord
100
AcDbBlockTableRecord
  2
M5ヘックス25_0005
  0
ENDTAB
  0
ENDSEC
  0
SECTION
  2
BLOCKS
  0
BLOCK
  5
21
100
AcDbEntity
  8
0
100
AcDbBlockBegin
  2
*MODEL_SPACE
 70
     0
 10
0.0
 20
0.0
 30
0.0
  3
*MODEL_SPACE
  1

  0
ENDBLK
  5
332
100
AcDbEntity
  8
0
100
AcDbBlockEnd
  0
BLOCK
  5
23
100
AcDbEntity
 67
     1
  8
0
100
AcDbBlockBegin
  2
*PAPER_SPACE
 70
     0
 10
0.0
 20
0.0
 30
0.0
  3
*PAPER_SPACE
  1

  0
ENDBLK
  5
333
100
AcDbEntity
 67
     1
  8
0
100
AcDbBlockEnd
  0
BLOCK
  5
334
100
AcDbEntity
  8
0
100
AcDbBlockBegin
  2
MARK1_1
 70
    64
 10
0.0
 20
0.0
  0
LINE
  5
335
100
AcDbEntity
  8
0
  6
CONTINUOUS
 62
     0
100
AcDbLine
 10
1.0
 20
-0.25
 11
0.0
 21
0.0
  0
LINE
  5
336
100
AcDbEntity
  8
0
  6
CONTINUOUS
 62
     0
100
AcDbLine
 10
0.0
 20
0.0
 11
1.0
 21
0.25
  0
ENDBLK
  5
337
100
AcDbEntity
  8
0
100
AcDbBlockEnd
  0
BLOCK
  5
9C
100
AcDbEntity
  8
0
100
AcDbBlockBegin
  2
*D1
 70
    65
 10
0.0
 20
0.0
  0
LINE
  5
9D
100
AcDbEntity
  8
0
  6
CONTINUOUS
100
AcDbLine
 10
94.6200790405273
 20
-6.79690313339233
 11
94.6200790405273
 21
-13.2969026565552
  0
CIRCLE
  5
9E
100
AcDbEntity
  8
0
  6
CONTINUOUS
100
AcDbCircle
 10
94.6200790405273
 20
-6.79690313339233
 40
1.125
  0
CIRCLE
  5
9F
100
AcDbEntity
  8
0
  6
CONTINUOUS
100
AcDbCircle
 10
94.6200790405273
 20
-6.79690313339233
 40
0.5625
  0
LINE
  5
A0
100
AcDbEntity
  8
0
  6
CONTINUOUS
100
AcDbLine
 10
94.6200790405273
 20
-19.7969036102295
 11
94.6200790405273
 21
-13.2969026565552
  0
CIRCLE
  5
A1
100
AcDbEntity
  8
0
  6
CONTINUOUS
100
AcDbCircle
 10
94.6200790405273
 20
-19.7969036102295
 40
1.125
  0
CIRCLE
  5
A2
100
AcDbEntity
  8
0
  6
CONTINUOUS
100
AcDbCircle
 10
94.6200790405273
 20
-19.7969036102295
 40
0.5625
  0
LINE
  5
A3
100
AcDbEntity
  8
0
  6
CONTINUOUS
100
AcDbLine
 10
74.4205627441406
 20
-6.79690313339233
 11
100.620079040527
 21
-6.79690313339233
  0
LINE
  5
A4
100
AcDbEntity
  8
0
  6
CONTINUOUS
100
AcDbLine
 10
-32.3776512145996
 20
-19.7969036102295
 11
100.620079040527
 21
-19.7969036102295
  0
MTEXT
  5
A5
100
AcDbEntity
  8
0
  6
CONTINUOUS
100
AcDbMText
 10
93.1200790405273
 20
-18.1062774658203
 40
8.1
 41
0.0
 11
6.12323399573677E-017
 21
1.0
 71
     7
 72
     5
  7
STANDARD
  1
{\T1.03125;\W0.666667;13}
 73
     1
 44
1.0
  0
POINT
  5
A6
100
AcDbEntity
  8
DEFPOINTS
  6
BYBLOCK
 62
     0
100
AcDbPoint
 10
69.9205638472839
 20
-6.79690276950617
  0
POINT
  5
A7
100
AcDbEntity
  8
DEFPOINTS
  6
BYBLOCK
 62
     0
100
AcDbPoint
 10
-36.8776519290253
 20
-19.7969027695062
  0
POINT
  5
A8
100
AcDbEntity
  8
DEFPOINTS
  6
BYBLOCK
 62
     0
100
AcDbPoint
 10
94.6200786796776
 20
-19.7969027695062
  0
ENDBLK
  5
A9
100
AcDbEntity
  8
3
100
AcDbBlockEnd
  0
BLOCK
  5
AC
100
AcDbEntity
  8
0
100
AcDbBlockBegin
  2
*D2
 70
    65
 10
0.0
 20
0.0
  0
LINE
  5
AD
100
AcDbEntity
  8
0
  6
CONTINUOUS
100
AcDbLine
 10
60.8832702636719
 20
-6.79690313339233
 11
60.8832702636719
 21
-11.7969026565552
  0
CIRCLE
  5
AE
100
AcDbEntity
  8
0
  6
CONTINUOUS
100
AcDbCircle
 10
60.8832702636719
 20
-6.79690313339233
 40
1.125
  0
CIRCLE
  5
AF
100
AcDbEntity
  8
0
  6
CONTINUOUS
100
AcDbCircle
 10
60.8832702636719
 20
-6.79690313339233
 40
0.5625
  0
LINE
  5
B0
100
AcDbEntity
  8
0
  6
CONTINUOUS
100
AcDbLine
 10
60.8832702636719
 20
-16.7969036102295
 11
60.8832702636719
 21
-11.7969026565552
  0
CIRCLE
  5
B1
100
AcDbEntity
  8
0
  6
CONTINUOUS
100
AcDbCircle
 10
60.8832702636719
 20
-16.7969036102295
 40
1.125
  0
CIRCLE
  5
B2
100
AcDbEntity
  8
0
  6
CONTINUOUS
100
AcDbCircle
 10
60.8832702636719
 20
-16.7969036102295
 40
0.5625
  0
LINE
  5
B3
100
AcDbEntity
  8
0
  6
CONTINUOUS
100
AcDbLine
 10
56.7074661254883
 20
-6.79690313339233
 11
66.8832702636719
 21
-6.79690313339233
  0
LINE
  5
B4
100
AcDbEntity
  8
0
  6
CONTINUOUS
100
AcDbLine
 10
35.1086807250977
 20
-16.7969036102295
 11
66.8832702636719
 21
-16.7969036102295
  0
MTEXT
  5
B5
100
AcDbEntity
  8
0
  6
CONTINUOUS
100
AcDbMText
 10
59.3832626342773
 20
-16.6062774658203
 40
8.1
 41
0.0
 11
6.12323399573677E-017
 21
1.0
 71
     7
 72
     5
  7
STANDARD
  1
{\T1.03125;\W0.666667;10}
 73
     1
 44
1.0
  0
POINT
  5
B6
100
AcDbEntity
  8
DEFPOINTS
  6
BYBLOCK
 62
     0
100
AcDbPoint
 10
52.2074694007392
 20
-6.79690276950617
  0
POINT
  5
B7
100
AcDbEntity
  8
DEFPOINTS
  6
BYBLOCK
 62
     0
100
AcDbPoint
 10
30.6086834160057
 20
-16.7969027695062
  0
POINT
  5
B8
100
AcDbEntity
  8
DEFPOINTS
  6
BYBLOCK
 62
     0
100
AcDbPoint
 10
60.8832707623121
 20
-16.7969027695062
  0
ENDBLK
  5
B9
100
AcDbEntity
  8
3
100
AcDbBlockEnd
  0
BLOCK
  5
BC
100
AcDbEntity
  8
0
100
AcDbBlockBegin
  2
*D3
 70
    65
 10
0.0
 20
0.0
  0
LINE
  5
BD
100
AcDbEntity
  8
0
  6
CONTINUOUS
100
AcDbLine
 10
60.8832702636719
 20
-16.7969036102295
 11
60.8832702636719
 21
-18.2969036102295
  0
LINE
  5
BE
100
AcDbEntity
  8
0
  6
CONTINUOUS
100
AcDbLine
 10
60.8832702636719
 20
-19.7969036102295
 11
60.8832702636719
 21
-18.2969036102295
  0
LINE
  5
BF
100
AcDbEntity
  8
0
  6
CONTINUOUS
100
AcDbLine
 10
60.8832702636719
 20
-19.7969036102295
 11
60.8832702636719
 21
-29.84690284729
  0
CIRCLE
  5
C0
100
AcDbEntity
  8
0
  6
CONTINUOUS
100
AcDbCircle
 10
60.8832702636719
 20
-19.7969036102295
 40
1.125
  0
CIRCLE
  5
C1
100
AcDbEntity
  8
0
  6
CONTINUOUS
100
AcDbCircle
 10
60.8832702636719
 20
-19.7969036102295
 40
0.5625
  0
LINE
  5
C2
100
AcDbEntity
  8
0
  6
CONTINUOUS
100
AcDbLine
 10
56.1652297973633
 20
-19.7969036102295
 11
66.8832702636719
 21
-19.7969036102295
  0
MTEXT
  5
C3
100
AcDbEntity
  8
0
  6
CONTINUOUS
100
AcDbMText
 10
59.3832626342773
 20
-28.34690284729
 40
8.1
 41
0.0
 11
6.12323399573677E-017
 21
1.0
 71
     7
 72
     5
  7
STANDARD
  1
{\T1.03125;\W0.666667;3}
 73
     1
 44
1.0
  0
POINT
  5
C4
100
AcDbEntity
  8
DEFPOINTS
  6
BYBLOCK
 62
     0
100
AcDbPoint
 10
30.6086834160057
 20
-16.7969027695062
  0
POINT
  5
C5
100
AcDbEntity
  8
DEFPOINTS
  6
BYBLOCK
 62
     0
100
AcDbPoint
 10
51.6652318156409
 20
-19.7969027695062
  0
POINT
  5
C6
100
AcDbEntity
  8
DEFPOINTS
  6
BYBLOCK
 62
     0
100
AcDbPoint
 10
60.8832707623121
 20
-19.7969027695062
  0
ENDBLK
  5
C7
100
AcDbEntity
  8
3
100
AcDbBlockEnd
  0
BLOCK
  5
CA
100
AcDbEntity
  8
0
100
AcDbBlockBegin
  2
*D4
 70
    65
 10
0.0
 20
0.0
  0
LINE
  5
CB
100
AcDbEntity
  8
0
  6
CONTINUOUS
100
AcDbLine
 10
30.9086837768555
 20
-58.1757698059082
 11
-4.09131669998169
 21
-58.1757698059082
  0
CIRCLE
  5
CC
100
AcDbEntity
  8
0
  6
CONTINUOUS
100
AcDbCircle
 10
30.9086837768555
 20
-58.1757698059082
 40
1.125
  0
CIRCLE
  5
CD
100
AcDbEntity
  8
0
  6
CONTINUOUS
100
AcDbCircle
 10
30.9086837768555
 20
-58.1757698059082
 40
0.5625
  0
LINE
  5
CE
100
AcDbEntity
  8
0
  6
CONTINUOUS
100
AcDbLine
 10
-39.0913162231445
 20
-58.1757698059082
 11
-4.09131669998169
 21
-58.1757698059082
  0
CIRCLE
  5
CF
100
AcDbEntity
  8
0
  6
CONTINUOUS
100
AcDbCircle
 10
-39.0913162231445
 20
-58.1757698059082
 40
1.125
  0
CIRCLE
  5
D0
100
AcDbEntity
  8
0
  6
CONTINUOUS
100
AcDbCircle
 10
-39.0913162231445
 20
-58.1757698059082
 40
0.5625
  0
LINE
  5
D1
100
AcDbEntity
  8
0
  6
CONTINUOUS
100
AcDbLine
 10
30.9086837768555
 20
-20.831880569458
 11
30.9086837768555
 21
-64.1757659912109
  0
LINE
  5
D2
100
AcDbEntity
  8
0
  6
CONTINUOUS
100
AcDbLine
 10
-39.0913162231445
 20
-23.831880569458
 11
-39.0913162231445
 21
-64.1757659912109
  0
MTEXT
  5
D3
100
AcDbEntity
  8
0
  6
CONTINUOUS
100
AcDbMText
 10
-8.90069198608398
 20
-56.6757736206055
 40
8.1
 41
0.0
 11
1.0
 21
0.0
 71
     7
 72
     5
  7
STANDARD
  1
{\T1.03125;\W0.666667;70}
 73
     1
 44
1.0
  0
POINT
  5
D4
100
AcDbEntity
  8
DEFPOINTS
  6
BYBLOCK
 62
     0
100
AcDbPoint
 10
30.9086834160057
 20
-16.3318810229579
  0
POINT
  5
D5
100
AcDbEntity
  8
DEFPOINTS
  6
BYBLOCK
 62
     0
100
AcDbPoint
 10
-39.0913165839943
 20
-19.3318810229579
  0
POINT
  5
D6
100
AcDbEntity
  8
DEFPOINTS
  6
BYBLOCK
 62
     0
100
AcDbPoint
 10
-39.0913165839943
 20
-58.1757679474959
  0
ENDBLK
  5
D7
100
AcDbEntity
  8
3
100
AcDbBlockEnd
  0
BLOCK
  5
DA
100
AcDbEntity
  8
0
100
AcDbBlockBegin
  2
*D5
 70
    65
 10
0.0
 20
0.0
  0
LINE
  5
DB
100
AcDbEntity
  8
0
  6
CONTINUOUS
100
AcDbLine
 10
-75.3749847412109
 20
33.2032470703125
 11
-75.3749847412109
 21
25.7031707763672
  0
CIRCLE
  5
DC
100
AcDbEntity
  8
0
  6
CONTINUOUS
100
AcDbCircle
 10
-75.3749847412109
 20
33.2032470703125
 40
1.125
  0
CIRCLE
  5
DD
100
AcDbEntity
  8
0
  6
CONTINUOUS
100
AcDbCircle
 10
-75.3749847412109
 20
33.2032470703125
 40
0.5625
  0
LINE
  5
DE
100
AcDbEntity
  8
0
  6
CONTINUOUS
100
AcDbLine
 10
-75.3749847412109
 20
18.2030982971191
 11
-75.3749847412109
 21
25.7031707763672
  0
CIRCLE
  5
DF
100
AcDbEntity
  8
0
  6
CONTINUOUS
100
AcDbCircle
 10
-75.3749847412109
 20
18.2030982971191
 40
1.125
  0
CIRCLE
  5
E0
100
AcDbEntity
  8
0
  6
CONTINUOUS
100
AcDbCircle
 10
-75.3749847412109
 20
18.2030982971191
 40
0.5625
  0
LINE
  5
E1
100
AcDbEntity
  8
0
  6
CONTINUOUS
100
AcDbLine
 10
-23.5913162231445
 20
33.2032470703125
 11
-81.3749847412109
 21
33.2032470703125
  0
LINE
  5
E2
100
AcDbEntity
  8
0
  6
CONTINUOUS
100
AcDbLine
 10
-20.5913162231445
 20
18.2030982971191
 11
-81.3749847412109
 21
18.2030982971191
  0
MTEXT
  5
E3
100
AcDbEntity
  8
0
  6
CONTINUOUS
100
AcDbMText
 10
-76.8749771118164
 20
20.8937950134277
 40
8.1
 41
0.0
 11
6.12323399573677E-017
 21
1.0
 71
     7
 72
     5
  7
STANDARD
  1
{\T1.03125;\W0.666667;15}
 73
     1
 44
1.0
  0
POINT
  5
E4
100
AcDbEntity
  8
DEFPOINTS
  6
BYBLOCK
 62
     0
100
AcDbPoint
 10
-19.0913165839943
 20
33.2032471711617
  0
POINT
  5
E5
100
AcDbEntity
  8
DEFPOINTS
  6
BYBLOCK
 62
     0
100
AcDbPoint
 10
-16.0913165839943
 20
18.2030972304938
  0
POINT
  5
E6
100
AcDbEntity
  8
DEFPOINTS
  6
BYBLOCK
 62
     0
100
AcDbPoint
 10
-75.3749812873634
 20
18.2030972304938
  0
ENDBLK
  5
E7
100
AcDbEntity
  8
3
100
AcDbBlockEnd
  0
BLOCK
  5
EA
100
AcDbEntity
  8
0
100
AcDbBlockBegin
  2
*D6
 70
    65
 10
0.0
 20
0.0
  0
LINE
  5
EB
100
AcDbEntity
  8
0
  6
CONTINUOUS
100
AcDbLine
 10
-75.3749847412109
 20
-19.7969036102295
 11
-75.3749847412109
 21
-0.796900987625122
  0
CIRCLE
  5
EC
100
AcDbEntity
  8
0
  6
CONTINUOUS
100
AcDbCircle
 10
-75.3749847412109
 20
-19.7969036102295
 40
1.125
  0
CIRCLE
  5
ED
100
AcDbEntity
  8
0
  6
CONTINUOUS
100
AcDbCircle
 10
-75.3749847412109
 20
-19.7969036102295
 40
0.5625
  0
LINE
  5
EE
100
AcDbEntity
  8
0
  6
CONTINUOUS
100
AcDbLine
 10
-75.3749847412109
 20
18.2030982971191
 11
-75.3749847412109
 21
-0.796900987625122
  0
CIRCLE
  5
EF
100
AcDbEntity
  8
0
  6
CONTINUOUS
100
AcDbCircle
 10
-75.3749847412109
 20
18.2030982971191
 40
1.125
  0
CIRCLE
  5
F0
100
AcDbEntity
  8
0
  6
CONTINUOUS
100
AcDbCircle
 10
-75.3749847412109
 20
18.2030982971191
 40
0.5625
  0
LINE
  5
F1
100
AcDbEntity
  8
0
  6
CONTINUOUS
100
AcDbLine
 10
-43.291316986084
 20
-19.7969036102295
 11
-81.3749847412109
 21
-19.7969036102295
  0
LINE
  5
F2
100
AcDbEntity
  8
0
  6
CONTINUOUS
100
AcDbLine
 10
-54.8499412536621
 20
18.2030982971191
 11
-81.3749847412109
 21
18.2030982971191
  0
MTEXT
  5
F3
100
AcDbEntity
  8
0
  6
CONTINUOUS
100
AcDbMText
 10
-76.8749847412109
 20
-5.60627603530884
 40
8.1
 41
0.0
 11
6.12323399573677E-017
 21
1.0
 71
     7
 72
     5
  7
STANDARD
  1
{\T1.03125;\W0.666667;38}
 73
     1
 44
1.0
  0
POINT
  5
F4
100
AcDbEntity
  8
DEFPOINTS
  6
BYBLOCK
 62
     0
100
AcDbPoint
 10
-38.7913165839943
 20
-19.7969027695062
  0
POINT
  5
F5
100
AcDbEntity
  8
DEFPOINTS
  6
BYBLOCK
 62
     0
100
AcDbPoint
 10
-50.3499417646998
 20
18.2030989880284
  0
POINT
  5
F6
100
AcDbEntity
  8
DEFPOINTS
  6
BYBLOCK
 62
     0
100
AcDbPoint
 10
-75.3749819261579
 20
18.2030989880284
  0
ENDBLK
  5
F7
100
AcDbEntity
  8
3
100
AcDbBlockEnd
  0
BLOCK
  5
FA
100
AcDbEntity
  8
0
100
AcDbBlockBegin
  2
*D7
 70
    65
 10
0.0
 20
0.0
  0
LINE
  5
FB
100
AcDbEntity
  8
0
  6
CONTINUOUS
100
AcDbLine
 10
-58.2724418640137
 20
-19.7969036102295
 11
-58.2724418640137
 21
-2.29690289497375
  0
CIRCLE
  5
FC
100
AcDbEntity
  8
0
  6
CONTINUOUS
100
AcDbCircle
 10
-58.2724418640137
 20
-19.7969036102295
 40
1.125
  0
CIRCLE
  5
FD
100
AcDbEntity
  8
0
  6
CONTINUOUS
100
AcDbCircle
 10
-58.2724418640137
 20
-19.7969036102295
 40
0.5625
  0
LINE
  5
FE
100
AcDbEntity
  8
0
  6
CONTINUOUS
100
AcDbLine
 10
-58.2724418640137
 20
15.2030992507935
 11
-58.2724418640137
 21
-2.29690098762512
  0
CIRCLE
  5
FF
100
AcDbEntity
  8
0
  6
CONTINUOUS
100
AcDbCircle
 10
-58.2724418640137
 20
15.2030992507935
 40
1.125
  0
CIRCLE
  5
100
100
AcDbEntity
  8
0
  6
CONTINUOUS
100
AcDbCircle
 10
-58.2724418640137
 20
15.2030992507935
 40
0.5625
  0
LINE
  5
101
100
AcDbEntity
  8
0
  6
CONTINUOUS
100
AcDbLine
 10
-47.791316986084
 20
-19.7969036102295
 11
-64.2724456787109
 21
-19.7969036102295
  0
LINE
  5
102
100
AcDbEntity
  8
0
  6
CONTINUOUS
100
AcDbLine
 10
-43.5913162231445
 20
15.2030992507935
 11
-64.2724456787109
 21
15.2030992507935
  0
MTEXT
  5
103
100
AcDbEntity
  8
0
  6
CONTINUOUS
100
AcDbMText
 10
-59.7724418640137
 20
-7.1062798500061
 40
8.1
 41
0.0
 11
6.12323399573677E-017
 21
1.0
 71
     7
 72
     5
  7
STANDARD
  1
{\T1.03125;\W0.666667;35}
 73
     1
 44
1.0
  0
POINT
  5
104
100
AcDbEntity
  8
DEFPOINTS
  6
BYBLOCK
 62
     0
100
AcDbPoint
 10
-43.2913163932594
 20
-19.7969027703086
  0
POINT
  5
105
100
AcDbEntity
  8
DEFPOINTS
  6
BYBLOCK
 62
     0
100
AcDbPoint
 10
-39.0913165839943
 20
15.2030972304938
  0
POINT
  5
106
100
AcDbEntity
  8
DEFPOINTS
  6
BYBLOCK
 62
     0
100
AcDbPoint
 10
-58.2724419163172
 20
15.2030972304938
  0
ENDBLK
  5
107
100
AcDbEntity
  8
3
100
AcDbBlockEnd
  0
BLOCK
  5
10A
100
AcDbEntity
  8
0
100
AcDbBlockBegin
  2
*D8
 70
    65
 10
0.0
 20
0.0
  0
LINE
  5
10B
100
AcDbEntity
  8
0
  6
CONTINUOUS
100
AcDbLine
 10
-58.2724418640137
 20
15.2030992507935
 11
-58.2724418640137
 21
12.2030992507935
  0
CIRCLE
  5
10C
100
AcDbEntity
  8
0
  6
CONTINUOUS
100
AcDbCircle
 10
-58.2724418640137
 20
15.2030992507935
 40
1.125
  0
CIRCLE
  5
10D
100
AcDbEntity
  8
0
  6
CONTINUOUS
100
AcDbCircle
 10
-58.2724418640137
 20
15.2030992507935
 40
0.5625
  0
LINE
  5
10E
100
AcDbEntity
  8
0
  6
CONTINUOUS
100
AcDbLine
 10
-58.2724418640137
 20
15.2030992507935
 11
-58.2724418640137
 21
16.7030982971191
  0
LINE
  5
10F
100
AcDbEntity
  8
0
  6
CONTINUOUS
100
AcDbLine
 10
-58.2724418640137
 20
18.2030982971191
 11
-58.2724418640137
 21
16.7030982971191
  0
LINE
  5
110
100
AcDbEntity
  8
0
  6
CONTINUOUS
100
AcDbLine
 10
-58.2724418640137
 20
18.2030982971191
 11
-58.2724418640137
 21
28.2530975341797
  0
CIRCLE
  5
111
100
AcDbEntity
  8
0
  6
CONTINUOUS
100
AcDbCircle
 10
-58.2724418640137
 20
18.2030982971191
 40
1.125
  0
CIRCLE
  5
112
100
AcDbEntity
  8
0
  6
CONTINUOUS
100
AcDbCircle
 10
-58.2724418640137
 20
18.2030982971191
 40
0.5625
  0
LINE
  5
113
100
AcDbEntity
  8
0
  6
CONTINUOUS
100
AcDbLine
 10
-48.0913162231445
 20
15.2030992507935
 11
-64.2724456787109
 21
15.2030992507935
  0
LINE
  5
114
100
AcDbEntity
  8
0
  6
CONTINUOUS
100
AcDbLine
 10
-46.8016891479492
 20
18.2030982971191
 11
-64.2724456787109
 21
18.2030982971191
  0
MTEXT
  5
115
100
AcDbEntity
  8
0
  6
CONTINUOUS
100
AcDbMText
 10
-59.7724418640137
 20
22.7030982971191
 40
8.1
 41
0.0
 11
6.12323399573677E-017
 21
1.0
 71
     7
 72
     5
  7
STANDARD
  1
{\T1.03125;\W0.666667;3}
 73
     1
 44
1.0
  0
POINT
  5
116
100
AcDbEntity
  8
DEFPOINTS
  6
BYBLOCK
 62
     0
100
AcDbPoint
 10
-43.5913165839943
 20
15.2030989880284
  0
POINT
  5
117
100
AcDbEntity
  8
DEFPOINTS
  6
BYBLOCK
 62
     0
100
AcDbPoint
 10
-42.3016876424218
 20
18.2030989880284
  0
POINT
  5
118
100
AcDbEntity
  8
DEFPOINTS
  6
BYBLOCK
 62
     0
100
AcDbPoint
 10
-58.2724422248634
 20
18.2030989880284
  0
ENDBLK
  5
119
100
AcDbEntity
  8
3
100
AcDbBlockEnd
  0
BLOCK
  5
11C
100
AcDbEntity
  8
0
100
AcDbBlockBegin
  2
*D9
 70
    65
 10
0.0
 20
0.0
  0
LINE
  5
11D
100
AcDbEntity
  8
0
  6
CONTINUOUS
100
AcDbLine
 10
70.9086837768555
 20
105.211433410645
 11
20.9086837768555
 21
105.211433410645
  0
CIRCLE
  5
11E
100
AcDbEntity
  8
0
  6
CONTINUOUS
100
AcDbCircle
 10
70.9086837768555
 20
105.211433410645
 40
1.125
  0
CIRCLE
  5
11F
100
AcDbEntity
  8
0
  6
CONTINUOUS
100
AcDbCircle
 10
70.9086837768555
 20
105.211433410645
 40
0.5625
  0
LINE
  5
120
100
AcDbEntity
  8
0
  6
CONTINUOUS
100
AcDbLine
 10
-29.0913162231445
 20
105.211433410645
 11
20.9086837768555
 21
105.211433410645
  0
CIRCLE
  5
121
100
AcDbEntity
  8
0
  6
CONTINUOUS
100
AcDbCircle
 10
-29.0913162231445
 20
105.211433410645
 40
1.125
  0
CIRCLE
  5
122
100
AcDbEntity
  8
0
  6
CONTINUOUS
100
AcDbCircle
 10
-29.0913162231445
 20
105.211433410645
 40
0.5625
  0
MTEXT
  5
123
100
AcDbEntity
  8
0
  6
CONTINUOUS
100
AcDbMText
 10
13.3149337768555
 20
106.711433410645
 40
8.1
 41
0.0
 11
1.0
 21
0.0
 71
     7
 72
     5
  7
STANDARD
  1
{\T1.03125;\W0.666667;100}
 73
     1
 44
1.0
  0
POINT
  5
124
100
AcDbEntity
  8
DEFPOINTS
  6
BYBLOCK
 62
     0
100
AcDbPoint
 10
70.9086834160057
 20
108.984189933893
  0
POINT
  5
125
100
AcDbEntity
  8
DEFPOINTS
  6
BYBLOCK
 62
     0
100
AcDbPoint
 10
-29.0913165839943
 20
104.133500371765
  0
POINT
  5
126
100
AcDbEntity
  8
DEFPOINTS
  6
BYBLOCK
 62
     0
100
AcDbPoint
 10
-29.0913165839943
 20
105.211431385571
  0
ENDBLK
  5
127
100
AcDbEntity
  8
3
100
AcDbBlockEnd
  0
BLOCK
  5
12A
100
AcDbEntity
  8
0
100
AcDbBlockBegin
  2
*D10
 70
    65
 10
0.0
 20
0.0
  0
LINE
  5
12B
100
AcDbEntity
  8
0
  6
CONTINUOUS
100
AcDbLine
 10
-29.0913162231445
 20
66.4059143066406
 11
-34.0913162231445
 21
66.4059143066406
  0
CIRCLE
  5
12C
100
AcDbEntity
  8
0
  6
CONTINUOUS
100
AcDbCircle
 10
-29.0913162231445
 20
66.4059143066406
 40
1.125
  0
CIRCLE
  5
12D
100
AcDbEntity
  8
0
  6
CONTINUOUS
100
AcDbCircle
 10
-29.0913162231445
 20
66.4059143066406
 40
0.5625
  0
LINE
  5
12E
100
AcDbEntity
  8
0
  6
CONTINUOUS
100
AcDbLine
 10
-39.0913162231445
 20
66.4059143066406
 11
-34.0913162231445
 21
66.4059143066406
  0
CIRCLE
  5
12F
100
AcDbEntity
  8
0
  6
CONTINUOUS
100
AcDbCircle
 10
-39.0913162231445
 20
66.4059143066406
 40
1.125
  0
CIRCLE
  5
130
100
AcDbEntity
  8
0
  6
CONTINUOUS
100
AcDbCircle
 10
-39.0913162231445
 20
66.4059143066406
 40
0.5625
  0
LINE
  5
131
100
AcDbEntity
  8
0
  6
CONTINUOUS
100
AcDbLine
 10
-39.0913162231445
 20
66.4059143066406
 11
-54.7100677490234
 21
66.4059143066406
  0
LINE
  5
132
100
AcDbEntity
  8
0
  6
CONTINUOUS
100
AcDbLine
 10
-39.0913162231445
 20
19.4396858215332
 11
-39.0913162231445
 21
72.4059143066406
  0
MTEXT
  5
133
100
AcDbEntity
  8
0
  6
CONTINUOUS
100
AcDbMText
 10
-53.2100677490234
 20
67.9059219360352
 40
8.1
 41
0.0
 11
1.0
 21
0.0
 71
     7
 72
     5
  7
STANDARD
  1
{\T1.03125;\W0.666667;10}
 73
     1
 44
1.0
  0
POINT
  5
134
100
AcDbEntity
  8
DEFPOINTS
  6
BYBLOCK
 62
     0
100
AcDbPoint
 10
-29.0913165839943
 20
68.4270355394324
  0
POINT
  5
135
100
AcDbEntity
  8
DEFPOINTS
  6
BYBLOCK
 62
     0
100
AcDbPoint
 10
-39.0913165839943
 20
14.9396864434136
  0
POINT
  5
136
100
AcDbEntity
  8
DEFPOINTS
  6
BYBLOCK
 62
     0
100
AcDbPoint
 10
-39.0913165839943
 20
66.4059148885456
  0
ENDBLK
  5
137
100
AcDbEntity
  8
3
100
AcDbBlockEnd
  0
BLOCK
  5
13A
100
AcDbEntity
  8
0
100
AcDbBlockBegin
  2
*D11
 70
    65
 10
0.0
 20
0.0
  0
LINE
  5
13B
100
AcDbEntity
  8
0
  6
CONTINUOUS
100
AcDbLine
 10
94.6200790405273
 20
-6.79690313339233
 11
94.6200790405273
 21
13.2031717300415
  0
CIRCLE
  5
13C
100
AcDbEntity
  8
0
  6
CONTINUOUS
100
AcDbCircle
 10
94.6200790405273
 20
-6.79690313339233
 40
1.125
  0
CIRCLE
  5
13D
100
AcDbEntity
  8
0
  6
CONTINUOUS
100
AcDbCircle
 10
94.6200790405273
 20
-6.79690313339233
 40
0.5625
  0
LINE
  5
13E
100
AcDbEntity
  8
0
  6
CONTINUOUS
100
AcDbLine
 10
94.6200790405273
 20
33.2032470703125
 11
94.6200790405273
 21
13.2031717300415
  0
CIRCLE
  5
13F
100
AcDbEntity
  8
0
  6
CONTINUOUS
100
AcDbCircle
 10
94.6200790405273
 20
33.2032470703125
 40
1.125
  0
CIRCLE
  5
140
100
AcDbEntity
  8
0
  6
CONTINUOUS
100
AcDbCircle
 10
94.6200790405273
 20
33.2032470703125
 40
0.5625
  0
LINE
  5
141
100
AcDbEntity
  8
0
  6
CONTINUOUS
100
AcDbLine
 10
65.4086837768555
 20
33.2032470703125
 11
100.620079040527
 21
33.2032470703125
  0
MTEXT
  5
142
100
AcDbEntity
  8
0
  6
CONTINUOUS
100
AcDbMText
 10
93.1200790405273
 20
8.39379596710205
 40
8.1
 41
0.0
 11
6.12323399573677E-017
 21
1.0
 71
     7
 72
     5
  7
STANDARD
  1
{\T1.03125;\W0.666667;40}
 73
     1
 44
1.0
  0
POINT
  5
143
100
AcDbEntity
  8
DEFPOINTS
  6
BYBLOCK
 62
     0
100
AcDbPoint
 10
94.6200786796776
 20
-6.79690276950617
  0
POINT
  5
144
100
AcDbEntity
  8
DEFPOINTS
  6
BYBLOCK
 62
     0
100
AcDbPoint
 10
60.9086834160057
 20
33.2032471711617
  0
POINT
  5
145
100
AcDbEntity
  8
DEFPOINTS
  6
BYBLOCK
 62
     0
100
AcDbPoint
 10
94.6200786796776
 20
33.2032471711617
  0
ENDBLK
  5
146
100
AcDbEntity
  8
3
100
AcDbBlockEnd
  0
BLOCK
  5
15D
100
AcDbEntity
  8
0
100
AcDbBlockBegin
  2
*D12
 70
    65
 10
0.0
 20
0.0
  0
LINE
  5
15E
100
AcDbEntity
  8
0
  6
CONTINUOUS
100
AcDbLine
 10
363.752136230469
 20
-58.1757698059082
 11
328.752136230469
 21
-58.1757698059082
  0
CIRCLE
  5
15F
100
AcDbEntity
  8
0
  6
CONTINUOUS
100
AcDbCircle
 10
363.752136230469
 20
-58.1757698059082
 40
1.125
  0
CIRCLE
  5
160
100
AcDbEntity
  8
0
  6
CONTINUOUS
100
AcDbCircle
 10
363.752136230469
 20
-58.1757698059082
 40
0.5625
  0
LINE
  5
161
100
AcDbEntity
  8
0
  6
CONTINUOUS
100
AcDbLine
 10
293.752136230469
 20
-58.1757698059082
 11
328.752136230469
 21
-58.1757698059082
  0
CIRCLE
  5
162
100
AcDbEntity
  8
0
  6
CONTINUOUS
100
AcDbCircle
 10
293.752136230469
 20
-58.1757698059082
 40
1.125
  0
CIRCLE
  5
163
100
AcDbEntity
  8
0
  6
CONTINUOUS
100
AcDbCircle
 10
293.752136230469
 20
-58.1757698059082
 40
0.5625
  0
LINE
  5
164
100
AcDbEntity
  8
0
  6
CONTINUOUS
100
AcDbLine
 10
363.752136230469
 20
-20.831880569458
 11
363.752136230469
 21
-64.1757659912109
  0
LINE
  5
165
100
AcDbEntity
  8
0
  6
CONTINUOUS
100
AcDbLine
 10
293.752136230469
 20
-23.831880569458
 11
293.752136230469
 21
-64.1757659912109
  0
MTEXT
  5
166
100
AcDbEntity
  8
0
  6
CONTINUOUS
100
AcDbMText
 10
323.942749023438
 20
-56.6757736206055
 40
8.1
 41
0.0
 11
1.0
 21
0.0
 71
     7
 72
     5
  7
STANDARD
  1
{\T1.03125;\W0.666667;70}
 73
     1
 44
1.0
  0
POINT
  5
167
100
AcDbEntity
  8
DEFPOINTS
  6
BYBLOCK
 62
     0
100
AcDbPoint
 10
363.752117365318
 20
-16.3318810229579
  0
POINT
  5
168
100
AcDbEntity
  8
DEFPOINTS
  6
BYBLOCK
 62
     0
100
AcDbPoint
 10
293.752117365318
 20
-19.3318810229579
  0
POINT
  5
169
100
AcDbEntity
  8
DEFPOINTS
  6
BYBLOCK
 62
     0
100
AcDbPoint
 10
293.752117365318
 20
-58.1757679474959
  0
ENDBLK
  5
16A
100
AcDbEntity
  8
3
100
AcDbBlockEnd
  0
BLOCK
  5
1B8
100
AcDbEntity
  8
0
100
AcDbBlockBegin
  2
*D13
 70
    65
 10
0.0
 20
0.0
  0
LINE
  5
1B9
100
AcDbEntity
  8
0
  6
CONTINUOUS
100
AcDbLine
 10
257.468475341797
 20
-19.7969036102295
 11
257.468475341797
 21
-0.796900987625122
  0
CIRCLE
  5
1BA
100
AcDbEntity
  8
0
  6
CONTINUOUS
100
AcDbCircle
 10
257.468475341797
 20
-19.7969036102295
 40
1.125
  0
CIRCLE
  5
1BB
100
AcDbEntity
  8
0
  6
CONTINUOUS
100
AcDbCircle
 10
257.468475341797
 20
-19.7969036102295
 40
0.5625
  0
LINE
  5
1BC
100
AcDbEntity
  8
0
  6
CONTINUOUS
100
AcDbLine
 10
257.468475341797
 20
18.2030982971191
 11
257.468475341797
 21
-0.796900987625122
  0
CIRCLE
  5
1BD
100
AcDbEntity
  8
0
  6
CONTINUOUS
100
AcDbCircle
 10
257.468475341797
 20
18.2030982971191
 40
1.125
  0
CIRCLE
  5
1BE
100
AcDbEntity
  8
0
  6
CONTINUOUS
100
AcDbCircle
 10
257.468475341797
 20
18.2030982971191
 40
0.5625
  0
LINE
  5
1BF
100
AcDbEntity
  8
0
  6
CONTINUOUS
100
AcDbLine
 10
289.552124023438
 20
-19.7969036102295
 11
251.468460083008
 21
-19.7969036102295
  0
LINE
  5
1C0
100
AcDbEntity
  8
0
  6
CONTINUOUS
100
AcDbLine
 10
277.993499755859
 20
18.2030982971191
 11
251.468460083008
 21
18.2030982971191
  0
MTEXT
  5
1C1
100
AcDbEntity
  8
0
  6
CONTINUOUS
100
AcDbMText
 10
255.968460083008
 20
-5.60627603530884
 40
8.1
 41
0.0
 11
6.12323399573677E-017
 21
1.0
 71
     7
 72
     5
  7
STANDARD
  1
{\T1.03125;\W0.666667;38}
 73
     1
 44
1.0
  0
POINT
  5
1C2
100
AcDbEntity
  8
DEFPOINTS
  6
BYBLOCK
 62
     0
100
AcDbPoint
 10
294.052117365318
 20
-19.7969027695062
  0
POINT
  5
1C3
100
AcDbEntity
  8
DEFPOINTS
  6
BYBLOCK
 62
     0
100
AcDbPoint
 10
282.493492184613
 20
18.2030989880284
  0
POINT
  5
1C4
100
AcDbEntity
  8
DEFPOINTS
  6
BYBLOCK
 62
     0
100
AcDbPoint
 10
257.468452023155
 20
18.2030989880284
  0
ENDBLK
  5
1C5
100
AcDbEntity
  8
3
100
AcDbBlockEnd
  0
BLOCK
  5
1C8
100
AcDbEntity
  8
0
100
AcDbBlockBegin
  2
*D14
 70
    65
 10
0.0
 20
0.0
  0
LINE
  5
1C9
100
AcDbEntity
  8
0
  6
CONTINUOUS
100
AcDbLine
 10
274.571014404297
 20
-19.7969036102295
 11
274.571014404297
 21
-2.29690289497375
  0
CIRCLE
  5
1CA
100
AcDbEntity
  8
0
  6
CONTINUOUS
100
AcDbCircle
 10
274.571014404297
 20
-19.7969036102295
 40
1.125
  0
CIRCLE
  5
1CB
100
AcDbEntity
  8
0
  6
CONTINUOUS
100
AcDbCircle
 10
274.571014404297
 20
-19.7969036102295
 40
0.5625
  0
LINE
  5
1CC
100
AcDbEntity
  8
0
  6
CONTINUOUS
100
AcDbLine
 10
274.571014404297
 20
15.2030992507935
 11
274.571014404297
 21
-2.29690098762512
  0
CIRCLE
  5
1CD
100
AcDbEntity
  8
0
  6
CONTINUOUS
100
AcDbCircle
 10
274.571014404297
 20
15.2030992507935
 40
1.125
  0
CIRCLE
  5
1CE
100
AcDbEntity
  8
0
  6
CONTINUOUS
100
AcDbCircle
 10
274.571014404297
 20
15.2030992507935
 40
0.5625
  0
LINE
  5
1CF
100
AcDbEntity
  8
0
  6
CONTINUOUS
100
AcDbLine
 10
285.052124023438
 20
-19.7969036102295
 11
268.571014404297
 21
-19.7969036102295
  0
LINE
  5
1D0
100
AcDbEntity
  8
0
  6
CONTINUOUS
100
AcDbLine
 10
289.252136230469
 20
15.2030992507935
 11
268.571014404297
 21
15.2030992507935
  0
MTEXT
  5
1D1
100
AcDbEntity
  8
0
  6
CONTINUOUS
100
AcDbMText
 10
273.071014404297
 20
-7.1062798500061
 40
8.1
 41
0.0
 11
6.12323399573677E-017
 21
1.0
 71
     7
 72
     5
  7
STANDARD
  1
{\T1.03125;\W0.666667;35}
 73
     1
 44
1.0
  0
POINT
  5
1D2
100
AcDbEntity
  8
DEFPOINTS
  6
BYBLOCK
 62
     0
100
AcDbPoint
 10
289.552117556053
 20
-19.7969027703086
  0
POINT
  5
1D3
100
AcDbEntity
  8
DEFPOINTS
  6
BYBLOCK
 62
     0
100
AcDbPoint
 10
293.752117365318
 20
15.2030972304938
  0
POINT
  5
1D4
100
AcDbEntity
  8
DEFPOINTS
  6
BYBLOCK
 62
     0
100
AcDbPoint
 10
274.570992032995
 20
15.2030972304938
  0
ENDBLK
  5
1D5
100
AcDbEntity
  8
3
100
AcDbBlockEnd
  0
BLOCK
  5
1D8
100
AcDbEntity
  8
0
100
AcDbBlockBegin
  2
*D15
 70
    65
 10
0.0
 20
0.0
  0
LINE
  5
1D9
100
AcDbEntity
  8
0
  6
CONTINUOUS
100
AcDbLine
 10
274.571014404297
 20
15.2030992507935
 11
274.571014404297
 21
12.2030992507935
  0
CIRCLE
  5
1DA
100
AcDbEntity
  8
0
  6
CONTINUOUS
100
AcDbCircle
 10
274.571014404297
 20
15.2030992507935
 40
1.125
  0
CIRCLE
  5
1DB
100
AcDbEntity
  8
0
  6
CONTINUOUS
100
AcDbCircle
 10
274.571014404297
 20
15.2030992507935
 40
0.5625
  0
LINE
  5
1DC
100
AcDbEntity
  8
0
  6
CONTINUOUS
100
AcDbLine
 10
274.571014404297
 20
15.2030992507935
 11
274.571014404297
 21
16.7030982971191
  0
LINE
  5
1DD
100
AcDbEntity
  8
0
  6
CONTINUOUS
100
AcDbLine
 10
274.571014404297
 20
18.2030982971191
 11
274.571014404297
 21
16.7030982971191
  0
LINE
  5
1DE
100
AcDbEntity
  8
0
  6
CONTINUOUS
100
AcDbLine
 10
274.571014404297
 20
18.2030982971191
 11
274.571014404297
 21
28.2530975341797
  0
CIRCLE
  5
1DF
100
AcDbEntity
  8
0
  6
CONTINUOUS
100
AcDbCircle
 10
274.571014404297
 20
18.2030982971191
 40
1.125
  0
CIRCLE
  5
1E0
100
AcDbEntity
  8
0
  6
CONTINUOUS
100
AcDbCircle
 10
274.571014404297
 20
18.2030982971191
 40
0.5625
  0
LINE
  5
1E1
100
AcDbEntity
  8
0
  6
CONTINUOUS
100
AcDbLine
 10
284.752136230469
 20
15.2030992507935
 11
268.571014404297
 21
15.2030992507935
  0
LINE
  5
1E2
100
AcDbEntity
  8
0
  6
CONTINUOUS
100
AcDbLine
 10
286.041748046875
 20
18.2030982971191
 11
268.571014404297
 21
18.2030982971191
  0
MTEXT
  5
1E3
100
AcDbEntity
  8
0
  6
CONTINUOUS
100
AcDbMText
 10
273.071014404297
 20
22.7030982971191
 40
8.1
 41
0.0
 11
6.12323399573677E-017
 21
1.0
 71
     7
 72
     5
  7
STANDARD
  1
{\T1.03125;\W0.666667;3}
 73
     1
 44
1.0
  0
POINT
  5
1E4
100
AcDbEntity
  8
DEFPOINTS
  6
BYBLOCK
 62
     0
100
AcDbPoint
 10
289.252117365318
 20
15.2030989880284
  0
POINT
  5
1E5
100
AcDbEntity
  8
DEFPOINTS
  6
BYBLOCK
 62
     0
100
AcDbPoint
 10
290.541746306891
 20
18.2030989880284
  0
POINT
  5
1E6
100
AcDbEntity
  8
DEFPOINTS
  6
BYBLOCK
 62
     0
100
AcDbPoint
 10
274.570991724449
 20
18.2030989880284
  0
ENDBLK
  5
1E7
100
AcDbEntity
  8
3
100
AcDbBlockEnd
  0
BLOCK
  5
1EA
100
AcDbEntity
  8
0
100
AcDbBlockBegin
  2
*D16
 70
    65
 10
0.0
 20
0.0
  0
LINE
  5
1EB
100
AcDbEntity
  8
0
  6
CONTINUOUS
100
AcDbLine
 10
393.726715087891
 20
-6.79690313339233
 11
393.726715087891
 21
-11.7969026565552
  0
CIRCLE
  5
1EC
100
AcDbEntity
  8
0
  6
CONTINUOUS
100
AcDbCircle
 10
393.726715087891
 20
-6.79690313339233
 40
1.125
  0
CIRCLE
  5
1ED
100
AcDbEntity
  8
0
  6
CONTINUOUS
100
AcDbCircle
 10
393.726715087891
 20
-6.79690313339233
 40
0.5625
  0
LINE
  5
1EE
100
AcDbEntity
  8
0
  6
CONTINUOUS
100
AcDbLine
 10
393.726715087891
 20
-16.7969036102295
 11
393.726715087891
 21
-11.7969026565552
  0
CIRCLE
  5
1EF
100
AcDbEntity
  8
0
  6
CONTINUOUS
100
AcDbCircle
 10
393.726715087891
 20
-16.7969036102295
 40
1.125
  0
CIRCLE
  5
1F0
100
AcDbEntity
  8
0
  6
CONTINUOUS
100
AcDbCircle
 10
393.726715087891
 20
-16.7969036102295
 40
0.5625
  0
LINE
  5
1F1
100
AcDbEntity
  8
0
  6
CONTINUOUS
100
AcDbLine
 10
389.550903320313
 20
-6.79690313339233
 11
399.726715087891
 21
-6.79690313339233
  0
LINE
  5
1F2
100
AcDbEntity
  8
0
  6
CONTINUOUS
100
AcDbLine
 10
367.952117919922
 20
-16.7969036102295
 11
399.726715087891
 21
-16.7969036102295
  0
MTEXT
  5
1F3
100
AcDbEntity
  8
0
  6
CONTINUOUS
100
AcDbMText
 10
392.226715087891
 20
-16.6062774658203
 40
8.1
 41
0.0
 11
6.12323399573677E-017
 21
1.0
 71
     7
 72
     5
  7
STANDARD
  1
{\T1.03125;\W0.666667;10}
 73
     1
 44
1.0
  0
POINT
  5
1F4
100
AcDbEntity
  8
DEFPOINTS
  6
BYBLOCK
 62
     0
100
AcDbPoint
 10
385.050903350052
 20
-6.79690276950617
  0
POINT
  5
1F5
100
AcDbEntity
  8
DEFPOINTS
  6
BYBLOCK
 62
     0
100
AcDbPoint
 10
363.452117365318
 20
-16.7969027695062
  0
POINT
  5
1F6
100
AcDbEntity
  8
DEFPOINTS
  6
BYBLOCK
 62
     0
100
AcDbPoint
 10
393.726704711625
 20
-16.7969027695062
  0
ENDBLK
  5
1F7
100
AcDbEntity
  8
3
100
AcDbBlockEnd
  0
BLOCK
  5
1FA
100
AcDbEntity
  8
0
100
AcDbBlockBegin
  2
*D17
 70
    65
 10
0.0
 20
0.0
  0
LINE
  5
1FB
100
AcDbEntity
  8
0
  6
CONTINUOUS
100
AcDbLine
 10
393.726715087891
 20
-16.7969036102295
 11
393.726715087891
 21
-18.2969036102295
  0
LINE
  5
1FC
100
AcDbEntity
  8
0
  6
CONTINUOUS
100
AcDbLine
 10
393.726715087891
 20
-19.7969036102295
 11
393.726715087891
 21
-18.2969036102295
  0
LINE
  5
1FD
100
AcDbEntity
  8
0
  6
CONTINUOUS
100
AcDbLine
 10
393.726715087891
 20
-19.7969036102295
 11
393.726715087891
 21
-29.84690284729
  0
CIRCLE
  5
1FE
100
AcDbEntity
  8
0
  6
CONTINUOUS
100
AcDbCircle
 10
393.726715087891
 20
-19.7969036102295
 40
1.125
  0
CIRCLE
  5
1FF
100
AcDbEntity
  8
0
  6
CONTINUOUS
100
AcDbCircle
 10
393.726715087891
 20
-19.7969036102295
 40
0.5625
  0
LINE
  5
200
100
AcDbEntity
  8
0
  6
CONTINUOUS
100
AcDbLine
 10
389.008666992188
 20
-19.7969036102295
 11
399.726715087891
 21
-19.7969036102295
  0
MTEXT
  5
201
100
AcDbEntity
  8
0
  6
CONTINUOUS
100
AcDbMText
 10
392.226715087891
 20
-28.34690284729
 40
8.1
 41
0.0
 11
6.12323399573677E-017
 21
1.0
 71
     7
 72
     5
  7
STANDARD
  1
{\T1.03125;\W0.666667;3}
 73
     1
 44
1.0
  0
POINT
  5
202
100
AcDbEntity
  8
DEFPOINTS
  6
BYBLOCK
 62
     0
100
AcDbPoint
 10
363.452117365318
 20
-16.7969027695062
  0
POINT
  5
203
100
AcDbEntity
  8
DEFPOINTS
  6
BYBLOCK
 62
     0
100
AcDbPoint
 10
384.508665764954
 20
-19.7969027695062
  0
POINT
  5
204
100
AcDbEntity
  8
DEFPOINTS
  6
BYBLOCK
 62
     0
100
AcDbPoint
 10
393.726704711625
 20
-19.7969027695062
  0
ENDBLK
  5
205
100
AcDbEntity
  8
3
100
AcDbBlockEnd
  0
BLOCK
  5
208
100
AcDbEntity
  8
0
100
AcDbBlockBegin
  2
*D18
 70
    65
 10
0.0
 20
0.0
  0
LINE
  5
209
100
AcDbEntity
  8
0
  6
CONTINUOUS
100
AcDbLine
 10
303.752136230469
 20
66.4059143066406
 11
298.752136230469
 21
66.4059143066406
  0
CIRCLE
  5
20A
100
AcDbEntity
  8
0
  6
CONTINUOUS
100
AcDbCircle
 10
303.752136230469
 20
66.4059143066406
 40
1.125
  0
CIRCLE
  5
20B
100
AcDbEntity
  8
0
  6
CONTINUOUS
100
AcDbCircle
 10
303.752136230469
 20
66.4059143066406
 40
0.5625
  0
LINE
  5
20C
100
AcDbEntity
  8
0
  6
CONTINUOUS
100
AcDbLine
 10
293.752136230469
 20
66.4059143066406
 11
298.752136230469
 21
66.4059143066406
  0
CIRCLE
  5
20D
100
AcDbEntity
  8
0
  6
CONTINUOUS
100
AcDbCircle
 10
293.752136230469
 20
66.4059143066406
 40
1.125
  0
CIRCLE
  5
20E
100
AcDbEntity
  8
0
  6
CONTINUOUS
100
AcDbCircle
 10
293.752136230469
 20
66.4059143066406
 40
0.5625
  0
LINE
  5
20F
100
AcDbEntity
  8
0
  6
CONTINUOUS
100
AcDbLine
 10
293.752136230469
 20
66.4059143066406
 11
278.133361816406
 21
66.4059143066406
  0
LINE
  5
210
100
AcDbEntity
  8
0
  6
CONTINUOUS
100
AcDbLine
 10
293.752136230469
 20
19.4396858215332
 11
293.752136230469
 21
72.4059143066406
  0
MTEXT
  5
211
100
AcDbEntity
  8
0
  6
CONTINUOUS
100
AcDbMText
 10
279.633361816406
 20
67.9059219360352
 40
8.1
 41
0.0
 11
1.0
 21
0.0
 71
     7
 72
     5
  7
STANDARD
  1
{\T1.03125;\W0.666667;10}
 73
     1
 44
1.0
  0
POINT
  5
212
100
AcDbEntity
  8
DEFPOINTS
  6
BYBLOCK
 62
     0
100
AcDbPoint
 10
303.752117365318
 20
68.4270355394324
  0
POINT
  5
213
100
AcDbEntity
  8
DEFPOINTS
  6
BYBLOCK
 62
     0
100
AcDbPoint
 10
293.752117365318
 20
14.9396864434136
  0
POINT
  5
214
100
AcDbEntity
  8
DEFPOINTS
  6
BYBLOCK
 62
     0
100
AcDbPoint
 10
293.752117365318
 20
66.4059148885456
  0
ENDBLK
  5
215
100
AcDbEntity
  8
3
100
AcDbBlockEnd
  0
BLOCK
  5
237
100
AcDbEntity
  8
0
100
AcDbBlockBegin
  2
*D19
 70
    65
 10
0.0
 20
0.0
  0
LINE
  5
238
100
AcDbEntity
  8
0
  6
CONTINUOUS
100
AcDbLine
 10
437.5947265625
 20
-6.79690313339233
 11
437.5947265625
 21
7.20309495925903
  0
CIRCLE
  5
239
100
AcDbEntity
  8
0
  6
CONTINUOUS
100
AcDbCircle
 10
437.5947265625
 20
-6.79690313339233
 40
1.125
  0
CIRCLE
  5
23A
100
AcDbEntity
  8
0
  6
CONTINUOUS
100
AcDbCircle
 10
437.5947265625
 20
-6.79690313339233
 40
0.5625
  0
LINE
  5
23B
100
AcDbEntity
  8
0
  6
CONTINUOUS
100
AcDbLine
 10
437.5947265625
 20
21.2030982971191
 11
437.5947265625
 21
7.20309686660767
  0
CIRCLE
  5
23C
100
AcDbEntity
  8
0
  6
CONTINUOUS
100
AcDbCircle
 10
437.5947265625
 20
21.2030982971191
 40
1.125
  0
CIRCLE
  5
23D
100
AcDbEntity
  8
0
  6
CONTINUOUS
100
AcDbCircle
 10
437.5947265625
 20
21.2030982971191
 40
0.5625
  0
LINE
  5
23E
100
AcDbEntity
  8
0
  6
CONTINUOUS
100
AcDbLine
 10
418.252136230469
 20
21.2030982971191
 11
443.5947265625
 21
21.2030982971191
  0
MTEXT
  5
23F
100
AcDbEntity
  8
0
  6
CONTINUOUS
100
AcDbMText
 10
436.094757080078
 20
2.39371943473816
 40
8.1
 41
0.0
 11
6.12323399573677E-017
 21
1.0
 71
     7
 72
     5
  7
STANDARD
  1
{\T1.03125;\W0.666667;28}
 73
     1
 44
1.0
  0
POINT
  5
240
100
AcDbEntity
  8
DEFPOINTS
  6
BYBLOCK
 62
     0
100
AcDbPoint
 10
427.463523503896
 20
-6.79690276950617
  0
POINT
  5
241
100
AcDbEntity
  8
DEFPOINTS
  6
BYBLOCK
 62
     0
100
AcDbPoint
 10
413.752117365318
 20
21.2030972304938
  0
POINT
  5
242
100
AcDbEntity
  8
DEFPOINTS
  6
BYBLOCK
 62
     0
100
AcDbPoint
 10
437.594707723244
 20
21.2030972304938
  0
ENDBLK
  5
243
100
AcDbEntity
  8
3
100
AcDbBlockEnd
  0
BLOCK
  5
246
100
AcDbEntity
  8
0
100
AcDbBlockBegin
  2
*D20
 70
    65
 10
0.0
 20
0.0
  0
LINE
  5
247
100
AcDbEntity
  8
0
  6
CONTINUOUS
100
AcDbLine
 10
437.5947265625
 20
-6.79690313339233
 11
437.5947265625
 21
-13.2969026565552
  0
CIRCLE
  5
248
100
AcDbEntity
  8
0
  6
CONTINUOUS
100
AcDbCircle
 10
437.5947265625
 20
-6.79690313339233
 40
1.125
  0
CIRCLE
  5
249
100
AcDbEntity
  8
0
  6
CONTINUOUS
100
AcDbCircle
 10
437.5947265625
 20
-6.79690313339233
 40
0.5625
  0
LINE
  5
24A
100
AcDbEntity
  8
0
  6
CONTINUOUS
100
AcDbLine
 10
437.5947265625
 20
-19.7969036102295
 11
437.5947265625
 21
-13.2969026565552
  0
CIRCLE
  5
24B
100
AcDbEntity
  8
0
  6
CONTINUOUS
100
AcDbCircle
 10
437.5947265625
 20
-19.7969036102295
 40
1.125
  0
CIRCLE
  5
24C
100
AcDbEntity
  8
0
  6
CONTINUOUS
100
AcDbCircle
 10
437.5947265625
 20
-19.7969036102295
 40
0.5625
  0
LINE
  5
24D
100
AcDbEntity
  8
0
  6
CONTINUOUS
100
AcDbLine
 10
300.465789794922
 20
-19.7969036102295
 11
443.5947265625
 21
-19.7969036102295
  0
MTEXT
  5
24E
100
AcDbEntity
  8
0
  6
CONTINUOUS
100
AcDbMText
 10
436.094757080078
 20
-18.1062774658203
 40
8.1
 41
0.0
 11
6.12323399573677E-017
 21
1.0
 71
     7
 72
     5
  7
STANDARD
  1
{\T1.03125;\W0.666667;13}
 73
     1
 44
1.0
  0
POINT
  5
24F
100
AcDbEntity
  8
DEFPOINTS
  6
BYBLOCK
 62
     0
100
AcDbPoint
 10
437.594718572256
 20
-6.79690276950617
  0
POINT
  5
250
100
AcDbEntity
  8
DEFPOINTS
  6
BYBLOCK
 62
     0
100
AcDbPoint
 10
295.965782020287
 20
-19.7969027695062
  0
POINT
  5
251
100
AcDbEntity
  8
DEFPOINTS
  6
BYBLOCK
 62
     0
100
AcDbPoint
 10
437.594718572256
 20
-19.7969027695062
  0
ENDBLK
  5
252
100
AcDbEntity
  8
3
100
AcDbBlockEnd
  0
BLOCK
  5
255
100
AcDbEntity
  8
0
100
AcDbBlockBegin
  2
*D21
 70
    65
 10
0.0
 20
0.0
  0
LINE
  5
256
100
AcDbEntity
  8
0
  6
CONTINUOUS
100
AcDbLine
 10
303.752136230469
 20
106.776580810547
 11
311.252136230469
 21
106.776580810547
  0
CIRCLE
  5
257
100
AcDbEntity
  8
0
  6
CONTINUOUS
100
AcDbCircle
 10
303.752136230469
 20
106.776580810547
 40
1.125
  0
CIRCLE
  5
258
100
AcDbEntity
  8
0
  6
CONTINUOUS
100
AcDbCircle
 10
303.752136230469
 20
106.776580810547
 40
0.5625
  0
LINE
  5
259
100
AcDbEntity
  8
0
  6
CONTINUOUS
100
AcDbLine
 10
318.752136230469
 20
106.776580810547
 11
311.252136230469
 21
106.776580810547
  0
CIRCLE
  5
25A
100
AcDbEntity
  8
0
  6
CONTINUOUS
100
AcDbCircle
 10
318.752136230469
 20
106.776580810547
 40
1.125
  0
CIRCLE
  5
25B
100
AcDbEntity
  8
0
  6
CONTINUOUS
100
AcDbCircle
 10
318.752136230469
 20
106.776580810547
 40
0.5625
  0
MTEXT
  5
25C
100
AcDbEntity
  8
0
  6
CONTINUOUS
100
AcDbMText
 10
306.442749023438
 20
108.276588439941
 40
8.1
 41
0.0
 11
1.0
 21
0.0
 71
     7
 72
     5
  7
STANDARD
  1
{\T1.03125;\W0.666667;15}
 73
     1
 44
1.0
  0
POINT
  5
25D
100
AcDbEntity
  8
DEFPOINTS
  6
BYBLOCK
 62
     0
100
AcDbPoint
 10
303.752117365318
 20
104.399744357147
  0
POINT
  5
25E
100
AcDbEntity
  8
DEFPOINTS
  6
BYBLOCK
 62
     0
100
AcDbPoint
 10
318.752117365318
 20
104.193062640069
  0
POINT
  5
25F
100
AcDbEntity
  8
DEFPOINTS
  6
BYBLOCK
 62
     0
100
AcDbPoint
 10
318.752117365318
 20
106.776584103551
  0
ENDBLK
  5
260
100
AcDbEntity
  8
3
100
AcDbBlockEnd
  0
BLOCK
  5
263
100
AcDbEntity
  8
0
100
AcDbBlockBegin
  2
*D22
 70
    65
 10
0.0
 20
0.0
  0
LINE
  5
264
100
AcDbEntity
  8
0
  6
CONTINUOUS
100
AcDbLine
 10
318.752136230469
 20
106.776580810547
 11
368.752136230469
 21
106.776580810547
  0
CIRCLE
  5
265
100
AcDbEntity
  8
0
  6
CONTINUOUS
100
AcDbCircle
 10
318.752136230469
 20
106.776580810547
 40
1.125
  0
CIRCLE
  5
266
100
AcDbEntity
  8
0
  6
CONTINUOUS
100
AcDbCircle
 10
318.752136230469
 20
106.776580810547
 40
0.5625
  0
LINE
  5
267
100
AcDbEntity
  8
0
  6
CONTINUOUS
100
AcDbLine
 10
418.752136230469
 20
106.776580810547
 11
368.752136230469
 21
106.776580810547
  0
CIRCLE
  5
268
100
AcDbEntity
  8
0
  6
CONTINUOUS
100
AcDbCircle
 10
418.752136230469
 20
106.776580810547
 40
1.125
  0
CIRCLE
  5
269
100
AcDbEntity
  8
0
  6
CONTINUOUS
100
AcDbCircle
 10
418.752136230469
 20
106.776580810547
 40
0.5625
  0
MTEXT
  5
26A
100
AcDbEntity
  8
0
  6
CONTINUOUS
100
AcDbMText
 10
361.158386230469
 20
108.276588439941
 40
8.1
 41
0.0
 11
1.0
 21
0.0
 71
     7
 72
     5
  7
STANDARD
  1
{\T1.03125;\W0.666667;100}
 73
     1
 44
1.0
  0
POINT
  5
26B
100
AcDbEntity
  8
DEFPOINTS
  6
BYBLOCK
 62
     0
100
AcDbPoint
 10
318.752117365318
 20
104.193062640069
  0
POINT
  5
26C
100
AcDbEntity
  8
DEFPOINTS
  6
BYBLOCK
 62
     0
100
AcDbPoint
 10
418.752117365318
 20
102.642949761979
  0
POINT
  5
26D
100
AcDbEntity
  8
DEFPOINTS
  6
BYBLOCK
 62
     0
100
AcDbPoint
 10
418.752117365318
 20
106.776584103551
  0
ENDBLK
  5
26E
100
AcDbEntity
  8
3
100
AcDbBlockEnd
  0
BLOCK
  5
2F7
100
AcDbEntity
  8
0
100
AcDbBlockBegin
  2
*D23
 70
    65
 10
0.0
 20
0.0
  0
LINE
  5
2F8
100
AcDbEntity
  8
0
  6
CONTINUOUS
100
AcDbLine
 10
257.468475341797
 20
18.2030982971191
 11
257.468475341797
 21
25.7030982971191
  0
CIRCLE
  5
2F9
100
AcDbEntity
  8
0
  6
CONTINUOUS
100
AcDbCircle
 10
257.468475341797
 20
18.2030982971191
 40
1.125
  0
CIRCLE
  5
2FA
100
AcDbEntity
  8
0
  6
CONTINUOUS
100
AcDbCircle
 10
257.468475341797
 20
18.2030982971191
 40
0.5625
  0
LINE
  5
2FB
100
AcDbEntity
  8
0
  6
CONTINUOUS
100
AcDbLine
 10
257.468475341797
 20
33.2030982971191
 11
257.468475341797
 21
25.7030982971191
  0
CIRCLE
  5
2FC
100
AcDbEntity
  8
0
  6
CONTINUOUS
100
AcDbCircle
 10
257.468475341797
 20
33.2030982971191
 40
1.125
  0
CIRCLE
  5
2FD
100
AcDbEntity
  8
0
  6
CONTINUOUS
100
AcDbCircle
 10
257.468475341797
 20
33.2030982971191
 40
0.5625
  0
LINE
  5
2FE
100
AcDbEntity
  8
0
  6
CONTINUOUS
100
AcDbLine
 10
281.541748046875
 20
18.2030982971191
 11
251.468460083008
 21
18.2030982971191
  0
LINE
  5
2FF
100
AcDbEntity
  8
0
  6
CONTINUOUS
100
AcDbLine
 10
299.252136230469
 20
33.2030982971191
 11
251.468460083008
 21
33.2030982971191
  0
MTEXT
  5
300
100
AcDbEntity
  8
0
  6
CONTINUOUS
100
AcDbMText
 10
255.968490600586
 20
20.8937225341797
 40
8.1
 41
0.0
 11
6.12323399573677E-017
 21
1.0
 71
     7
 72
     5
  7
STANDARD
  1
{\T1.03125;\W0.666667;15}
 73
     1
 44
1.0
  0
POINT
  5
301
100
AcDbEntity
  8
DEFPOINTS
  6
BYBLOCK
 62
     0
100
AcDbPoint
 10
286.041740056631
 20
18.2030989880284
  0
POINT
  5
302
100
AcDbEntity
  8
DEFPOINTS
  6
BYBLOCK
 62
     0
100
AcDbPoint
 10
303.752117365318
 20
33.2030989880284
  0
POINT
  5
303
100
AcDbEntity
  8
DEFPOINTS
  6
BYBLOCK
 62
     0
100
AcDbPoint
 10
257.468467351553
 20
33.2030989880284
  0
ENDBLK
  5
304
100
AcDbEntity
  8
3
100
AcDbBlockEnd
  0
BLOCK
  5
30B
100
AcDbEntity
  8
0
100
AcDbBlockBegin
  2
*D24
 70
    65
 10
0.0
 20
0.0
  0
LINE
  5
30C
100
AcDbEntity
  8
0
  6
CONTINUOUS
100
AcDbLine
 10
341.587677001953
 20
21.2030982971191
 11
341.587677001953
 21
27.2030982971191
  0
CIRCLE
  5
30D
100
AcDbEntity
  8
0
  6
CONTINUOUS
100
AcDbCircle
 10
341.587677001953
 20
21.2030982971191
 40
1.125
  0
CIRCLE
  5
30E
100
AcDbEntity
  8
0
  6
CONTINUOUS
100
AcDbCircle
 10
341.587677001953
 20
21.2030982971191
 40
0.5625
  0
LINE
  5
30F
100
AcDbEntity
  8
0
  6
CONTINUOUS
100
AcDbLine
 10
341.587677001953
 20
33.2030982971191
 11
341.587677001953
 21
27.2030982971191
  0
CIRCLE
  5
310
100
AcDbEntity
  8
0
  6
CONTINUOUS
100
AcDbCircle
 10
341.587677001953
 20
33.2030982971191
 40
1.125
  0
CIRCLE
  5
311
100
AcDbEntity
  8
0
  6
CONTINUOUS
100
AcDbCircle
 10
341.587677001953
 20
33.2030982971191
 40
0.5625
  0
LINE
  5
312
100
AcDbEntity
  8
0
  6
CONTINUOUS
100
AcDbLine
 10
341.587677001953
 20
33.2030982971191
 11
341.587677001953
 21
48.8218460083008
  0
LINE
  5
313
100
AcDbEntity
  8
0
  6
CONTINUOUS
100
AcDbLine
 10
338.755554199219
 20
21.2030982971191
 11
347.587677001953
 21
21.2030982971191
  0
LINE
  5
314
100
AcDbEntity
  8
0
  6
CONTINUOUS
100
AcDbLine
 10
323.252136230469
 20
33.2030982971191
 11
347.587677001953
 21
33.2030982971191
  0
MTEXT
  5
315
100
AcDbEntity
  8
0
  6
CONTINUOUS
100
AcDbMText
 10
340.087707519531
 20
37.7030944824219
 40
8.1
 41
0.0
 11
6.12323399573677E-017
 21
1.0
 71
     7
 72
     5
  7
STANDARD
  1
{\T1.03125;\W0.666667;12}
 73
     1
 44
1.0
  0
POINT
  5
316
100
AcDbEntity
  8
DEFPOINTS
  6
BYBLOCK
 62
     0
100
AcDbPoint
 10
334.255558793254
 20
21.2030972304938
  0
POINT
  5
317
100
AcDbEntity
  8
DEFPOINTS
  6
BYBLOCK
 62
     0
100
AcDbPoint
 10
318.752117365318
 20
33.2030989880284
  0
POINT
  5
318
100
AcDbEntity
  8
DEFPOINTS
  6
BYBLOCK
 62
     0
100
AcDbPoint
 10
341.587674444342
 20
33.2030989880284
  0
ENDBLK
  5
319
100
AcDbEntity
  8
3
100
AcDbBlockEnd
  0
BLOCK
  5
2B
100
AcDbEntity
  8
1
100
AcDbBlockBegin
  2
M4テックス13_0001
 70
    64
 10
0.0
 20
0.0
  0
LINE
  5
2C
100
AcDbEntity
  8
1
  6
CONTINUOUS
100
AcDbLine
 10
4.48445200761075
 20
0.0
 11
-14.7146839347331
 21
0.0
  0
LINE
  5
2D
100
AcDbEntity
  8
1
  6
CONTINUOUS
100
AcDbLine
 10
-8.0
 20
-1.75
 11
-8.0
 21
1.75
  0
LINE
  5
2E
100
AcDbEntity
  8
1
  6
CONTINUOUS
100
AcDbLine
 10
-11.8
 20
-1.75
 11
-13.0
 21
0.0
  0
LINE
  5
2F
100
AcDbEntity
  8
1
  6
CONTINUOUS
100
AcDbLine
 10
-8.0
 20
-1.75
 11
-11.8
 21
-1.75
  0
ARC
  5
30
100
AcDbEntity
  8
1
  6
CONTINUOUS
100
AcDbCircle
 10
-12.2356759718286
 20
-1.01136736851313
 40
0.857549833377651
100
AcDbArc
 50
300.533856012641
 51
39.3605771503502
  0
LINE
  5
31
100
AcDbEntity
  8
1
  6
CONTINUOUS
100
AcDbLine
 10
-0.899999999999999
 20
-1.5
 11
-1.09999999999999
 21
-2.2
  0
LINE
  5
32
100
AcDbEntity
  8
1
  6
CONTINUOUS
100
AcDbLine
 10
-1.09999999999999
 20
-2.2
 11
-1.59999999999999
 21
-1.5
  0
LINE
  5
33
100
AcDbEntity
  8
1
  6
CONTINUOUS
100
AcDbLine
 10
-2.34999999999999
 20
-1.5
 11
-2.55
 21
-2.2
  0
LINE
  5
34
100
AcDbEntity
  8
1
  6
CONTINUOUS
100
AcDbLine
 10
-2.55
 20
-2.2
 11
-3.05
 21
-1.5
  0
LINE
  5
35
100
AcDbEntity
  8
1
  6
CONTINUOUS
100
AcDbLine
 10
-3.8
 20
-1.5
 11
-4.0
 21
-2.2
  0
LINE
  5
36
100
AcDbEntity
  8
1
  6
CONTINUOUS
100
AcDbLine
 10
-4.0
 20
-2.2
 11
-4.5
 21
-1.5
  0
LINE
  5
37
100
AcDbEntity
  8
1
  6
CONTINUOUS
100
AcDbLine
 10
-5.25
 20
-1.5
 11
-5.45
 21
-2.2
  0
LINE
  5
38
100
AcDbEntity
  8
1
  6
CONTINUOUS
100
AcDbLine
 10
-5.45
 20
-2.2
 11
-5.95
 21
-1.5
  0
LINE
  5
39
100
AcDbEntity
  8
1
  6
CONTINUOUS
100
AcDbLine
 10
-0.5
 20
1.5
 11
-0.899999999999999
 21
-1.5
  0
LINE
  5
3A
100
AcDbEntity
  8
1
  6
CONTINUOUS
100
AcDbLine
 10
-0.5
 20
1.5
 11
-1.59999999999999
 21
-1.5
  0
LINE
  5
3B
100
AcDbEntity
  8
1
  6
CONTINUOUS
100
AcDbLine
 10
-1.25
 20
1.5
 11
-2.34999999999999
 21
-1.5
  0
LINE
  5
3C
100
AcDbEntity
  8
1
  6
CONTINUOUS
100
AcDbLine
 10
-1.95
 20
1.5
 11
-2.34999999999999
 21
-1.5
  0
LINE
  5
3D
100
AcDbEntity
  8
1
  6
CONTINUOUS
100
AcDbLine
 10
-1.95
 20
1.5
 11
-3.05
 21
-1.5
  0
LINE
  5
3E
100
AcDbEntity
  8
1
  6
CONTINUOUS
100
AcDbLine
 10
-2.7
 20
1.5
 11
-3.8
 21
-1.5
  0
LINE
  5
3F
100
AcDbEntity
  8
1
  6
CONTINUOUS
100
AcDbLine
 10
-3.4
 20
1.5
 11
-3.8
 21
-1.5
  0
LINE
  5
40
100
AcDbEntity
  8
1
  6
CONTINUOUS
100
AcDbLine
 10
-3.4
 20
1.5
 11
-4.5
 21
-1.5
  0
LINE
  5
41
100
AcDbEntity
  8
1
  6
CONTINUOUS
100
AcDbLine
 10
-4.15
 20
1.5
 11
-5.25
 21
-1.5
  0
LINE
  5
42
100
AcDbEntity
  8
1
  6
CONTINUOUS
100
AcDbLine
 10
-4.85
 20
1.5
 11
-5.25
 21
-1.5
  0
LINE
  5
43
100
AcDbEntity
  8
1
  6
CONTINUOUS
100
AcDbLine
 10
-4.85
 20
1.5
 11
-5.95
 21
-1.5
  0
LINE
  5
44
100
AcDbEntity
  8
1
  6
CONTINUOUS
100
AcDbLine
 10
-5.6
 20
1.5
 11
-6.7
 21
-1.5
  0
LINE
  5
45
100
AcDbEntity
  8
1
  6
CONTINUOUS
100
AcDbLine
 10
-6.7
 20
-1.5
 11
-6.9
 21
-2.2
  0
LINE
  5
46
100
AcDbEntity
  8
1
  6
CONTINUOUS
100
AcDbLine
 10
-6.9
 20
-2.2
 11
-7.4
 21
-1.5
  0
LINE
  5
47
100
AcDbEntity
  8
1
  6
CONTINUOUS
100
AcDbLine
 10
-6.3
 20
1.5
 11
-6.7
 21
-1.5
  0
LINE
  5
48
100
AcDbEntity
  8
1
  6
CONTINUOUS
100
AcDbLine
 10
-6.3
 20
1.5
 11
-7.4
 21
-1.5
  0
LINE
  5
49
100
AcDbEntity
  8
1
  6
CONTINUOUS
100
AcDbLine
 10
-6.7
 20
1.5
 11
-7.8
 21
-1.5
  0
LINE
  5
4A
100
AcDbEntity
  8
1
  6
CONTINUOUS
100
AcDbLine
 10
-7.4
 20
1.5
 11
-7.8
 21
-1.5
  0
LINE
  5
4B
100
AcDbEntity
  8
1
  6
CONTINUOUS
100
AcDbLine
 10
0.0
 20
-1.5
 11
-0.899999999999999
 21
-1.5
  0
LINE
  5
4C
100
AcDbEntity
  8
1
  6
CONTINUOUS
100
AcDbLine
 10
-1.59999999999999
 20
-1.5
 11
-2.34999999999999
 21
-1.5
  0
LINE
  5
4D
100
AcDbEntity
  8
1
  6
CONTINUOUS
100
AcDbLine
 10
-3.05
 20
-1.5
 11
-3.8
 21
-1.5
  0
LINE
  5
4E
100
AcDbEntity
  8
1
  6
CONTINUOUS
100
AcDbLine
 10
-4.5
 20
-1.5
 11
-5.25
 21
-1.5
  0
LINE
  5
4F
100
AcDbEntity
  8
1
  6
CONTINUOUS
100
AcDbLine
 10
-5.95
 20
-1.5
 11
-6.7
 21
-1.5
  0
LINE
  5
50
100
AcDbEntity
  8
1
  6
CONTINUOUS
100
AcDbLine
 10
-7.4
 20
-1.5
 11
-8.0
 21
-1.5
  0
LINE
  5
51
100
AcDbEntity
  8
1
  6
CONTINUOUS
100
AcDbLine
 10
-8.0
 20
1.75
 11
-11.8
 21
1.75
  0
LINE
  5
52
100
AcDbEntity
  8
1
  6
CONTINUOUS
100
AcDbLine
 10
-11.8
 20
1.75
 11
-13.0
 21
0.0
  0
LINE
  5
53
100
AcDbEntity
  8
1
  6
CONTINUOUS
100
AcDbLine
 10
-8.0
 20
1.75
 11
-13.0
 21
0.0
  0
ARC
  5
54
100
AcDbEntity
  8
1
  6
CONTINUOUS
100
AcDbCircle
 10
-15.5518880116721
 20
9.93018210553383
 40
11.1331213871283
100
AcDbArc
 50
290.942074504597
 51
312.712985072654
  0
LINE
  5
55
100
AcDbEntity
  8
1
  6
CONTINUOUS
100
AcDbLine
 10
-1.25
 20
1.5
 11
-1.45
 21
2.2
  0
LINE
  5
56
100
AcDbEntity
  8
1
  6
CONTINUOUS
100
AcDbLine
 10
-1.45
 20
2.2
 11
-1.95
 21
1.5
  0
LINE
  5
57
100
AcDbEntity
  8
1
  6
CONTINUOUS
100
AcDbLine
 10
-2.7
 20
1.5
 11
-2.9
 21
2.2
  0
LINE
  5
58
100
AcDbEntity
  8
1
  6
CONTINUOUS
100
AcDbLine
 10
-2.9
 20
2.2
 11
-3.4
 21
1.5
  0
LINE
  5
59
100
AcDbEntity
  8
1
  6
CONTINUOUS
100
AcDbLine
 10
-4.15
 20
1.5
 11
-4.34999999999999
 21
2.2
  0
LINE
  5
5A
100
AcDbEntity
  8
1
  6
CONTINUOUS
100
AcDbLine
 10
-4.34999999999999
 20
2.2
 11
-4.85
 21
1.5
  0
LINE
  5
5B
100
AcDbEntity
  8
1
  6
CONTINUOUS
100
AcDbLine
 10
-5.6
 20
1.5
 11
-5.8
 21
2.2
  0
LINE
  5
5C
100
AcDbEntity
  8
1
  6
CONTINUOUS
100
AcDbLine
 10
-5.8
 20
2.2
 11
-6.3
 21
1.5
  0
LINE
  5
5D
100
AcDbEntity
  8
1
  6
CONTINUOUS
100
AcDbLine
 10
-6.7
 20
1.5
 11
-6.9
 21
2.2
  0
LINE
  5
5E
100
AcDbEntity
  8
1
  6
CONTINUOUS
100
AcDbLine
 10
-6.9
 20
2.2
 11
-7.4
 21
1.5
  0
LINE
  5
5F
100
AcDbEntity
  8
1
  6
CONTINUOUS
100
AcDbLine
 10
0.0
 20
1.5
 11
-1.25
 21
1.5
  0
LINE
  5
60
100
AcDbEntity
  8
1
  6
CONTINUOUS
100
AcDbLine
 10
-1.95
 20
1.5
 11
-2.7
 21
1.5
  0
LINE
  5
61
100
AcDbEntity
  8
1
  6
CONTINUOUS
100
AcDbLine
 10
-3.4
 20
1.5
 11
-4.15
 21
1.5
  0
LINE
  5
62
100
AcDbEntity
  8
1
  6
CONTINUOUS
100
AcDbLine
 10
-4.85
 20
1.5
 11
-5.6
 21
1.5
  0
LINE
  5
63
100
AcDbEntity
  8
1
  6
CONTINUOUS
100
AcDbLine
 10
-6.3
 20
1.5
 11
-6.7
 21
1.5
  0
LINE
  5
64
100
AcDbEntity
  8
1
  6
CONTINUOUS
100
AcDbLine
 10
-7.4
 20
1.5
 11
-8.0
 21
1.5
  0
LINE
  5
65
100
AcDbEntity
  8
1
  6
CONTINUOUS
100
AcDbLine
 10
-13.0
 20
0.0
 11
-11.5726440622869
 21
-0.467510398662178
  0
LINE
  5
66
100
AcDbEntity
  8
1
  6
CONTINUOUS
100
AcDbLine
 10
1.21673936301791
 20
1.73768389601871
 11
0.0
 21
0.0
  0
ARC
  5
67
100
AcDbEntity
  8
1
  6
CONTINUOUS
100
AcDbCircle
 10
-1.74385964912281
 20
0.0
 40
4.59385964912281
100
AcDbArc
 50
292.309319477857
 51
67.6906805221434
  0
LINE
  5
68
100
AcDbEntity
  8
1
  6
CONTINUOUS
100
AcDbLine
 10
2.41599382968078
 20
1.94914481522651
 11
1.21673936301791
 21
1.73768389601871
  0
LINE
  5
69
100
AcDbEntity
  8
1
  6
CONTINUOUS
100
AcDbLine
 10
1.21673936301791
 20
-1.73768389601871
 11
0.0
 21
0.0
  0
LINE
  5
6A
100
AcDbEntity
  8
1
  6
CONTINUOUS
100
AcDbLine
 10
2.41599382968079
 20
-1.94914481522651
 11
1.21673936301791
 21
-1.73768389601871
  0
LINE
  5
6B
100
AcDbEntity
  8
1
  6
CONTINUOUS
100
AcDbLine
 10
0.0
 20
-4.25
 11
0.0
 21
4.25
  0
ENDBLK
  5
6C
100
AcDbEntity
  8
1
100
AcDbBlockEnd
  0
BLOCK
  5
70
100
AcDbEntity
  8
1
100
AcDbBlockBegin
  2
あ_0002
 70
    64
 10
0.0
 20
0.0
  0
LINE
  5
71
100
AcDbEntity
  8
1
  6
CONTINUOUS
100
AcDbLine
 10
8.18918928989144
 20
12.5297295148983
 11
2.18918928989144
 21
18.5297295148983
  0
LINE
  5
72
100
AcDbEntity
  8
1
  6
CONTINUOUS
100
AcDbLine
 10
8.18918928989144
 20
13.9439430772714
 11
2.18918928989144
 21
19.9439430772714
  0
LINE
  5
73
100
AcDbEntity
  8
1
  6
CONTINUOUS
100
AcDbLine
 10
-27.5214888287633
 20
-17.4702704851017
 11
-33.5214888287633
 21
-11.4702704851017
  0
LINE
  5
74
100
AcDbEntity
  8
1
  6
CONTINUOUS
100
AcDbLine
 10
-26.1072752663902
 20
-17.4702704851017
 11
-32.1072752663902
 21
-11.4702704851017
  0
LWPOLYLINE
  5
75
100
AcDbEntity
  8
1
  6
CONTINUOUS
100
AcDbPolyline
 90
       10
 70
     1
 43
0.0
 10
2.18918928989144
 20
-2.97027048510174
 10
2.18918928989144
 20
43.5297295148983
 42
-0.414213562373092
 10
6.18918928989144
 20
47.5297295148983
 10
8.18918928989144
 20
47.5297295148983
 10
8.18918928989144
 20
-17.4702704851017
 10
-56.8108107101086
 20
-17.4702704851017
 10
-56.8108107101086
 20
-15.4702704851017
 42
-0.414213562373095
 10
-52.8108107101086
 20
-11.4702704851017
 10
-6.31081071010856
 20
-11.4702704851017
 42
0.414213562373094
 10
2.18918928989144
 20
-2.97027048510174
  0
ENDBLK
  5
76
100
AcDbEntity
  8
1
100
AcDbBlockEnd
  0
BLOCK
  5
170
100
AcDbEntity
  8
1
100
AcDbBlockBegin
  2
M4テックス13_0003
 70
    64
 10
0.0
 20
0.0
  0
LINE
  5
171
100
AcDbEntity
  8
1
  6
CONTINUOUS
100
AcDbLine
 10
4.48445200761074
 20
0.0
 11
-14.7146839347332
 21
0.0
  0
LINE
  5
172
100
AcDbEntity
  8
1
  6
CONTINUOUS
100
AcDbLine
 10
-8.0
 20
-1.75
 11
-8.0
 21
1.75
  0
LINE
  5
173
100
AcDbEntity
  8
1
  6
CONTINUOUS
100
AcDbLine
 10
-11.8
 20
-1.75
 11
-13.0
 21
0.0
  0
LINE
  5
174
100
AcDbEntity
  8
1
  6
CONTINUOUS
100
AcDbLine
 10
-8.0
 20
-1.75
 11
-11.8
 21
-1.75
  0
ARC
  5
175
100
AcDbEntity
  8
1
  6
CONTINUOUS
100
AcDbCircle
 10
-12.2356759718286
 20
-1.01136736851313
 40
0.857549833377651
100
AcDbArc
 50
300.533856012641
 51
39.3605771503499
  0
LINE
  5
176
100
AcDbEntity
  8
1
  6
CONTINUOUS
100
AcDbLine
 10
-0.899999999999977
 20
-1.5
 11
-1.09999999999997
 21
-2.2
  0
LINE
  5
177
100
AcDbEntity
  8
1
  6
CONTINUOUS
100
AcDbLine
 10
-1.09999999999997
 20
-2.2
 11
-1.59999999999997
 21
-1.5
  0
LINE
  5
178
100
AcDbEntity
  8
1
  6
CONTINUOUS
100
AcDbLine
 10
-2.34999999999997
 20
-1.5
 11
-2.55000000000001
 21
-2.2
  0
LINE
  5
179
100
AcDbEntity
  8
1
  6
CONTINUOUS
100
AcDbLine
 10
-2.55000000000001
 20
-2.2
 11
-3.05000000000001
 21
-1.5
  0
LINE
  5
17A
100
AcDbEntity
  8
1
  6
CONTINUOUS
100
AcDbLine
 10
-3.80000000000001
 20
-1.5
 11
-4.0
 21
-2.2
  0
LINE
  5
17B
100
AcDbEntity
  8
1
  6
CONTINUOUS
100
AcDbLine
 10
-4.0
 20
-2.2
 11
-4.5
 21
-1.5
  0
LINE
  5
17C
100
AcDbEntity
  8
1
  6
CONTINUOUS
100
AcDbLine
 10
-5.25
 20
-1.5
 11
-5.44999999999999
 21
-2.2
  0
LINE
  5
17D
100
AcDbEntity
  8
1
  6
CONTINUOUS
100
AcDbLine
 10
-5.44999999999999
 20
-2.2
 11
-5.94999999999999
 21
-1.5
  0
LINE
  5
17E
100
AcDbEntity
  8
1
  6
CONTINUOUS
100
AcDbLine
 10
-0.5
 20
1.5
 11
-0.899999999999977
 21
-1.5
  0
LINE
  5
17F
100
AcDbEntity
  8
1
  6
CONTINUOUS
100
AcDbLine
 10
-0.5
 20
1.5
 11
-1.59999999999997
 21
-1.5
  0
LINE
  5
180
100
AcDbEntity
  8
1
  6
CONTINUOUS
100
AcDbLine
 10
-1.25
 20
1.5
 11
-2.34999999999997
 21
-1.5
  0
LINE
  5
181
100
AcDbEntity
  8
1
  6
CONTINUOUS
100
AcDbLine
 10
-1.94999999999999
 20
1.5
 11
-2.34999999999997
 21
-1.5
  0
LINE
  5
182
100
AcDbEntity
  8
1
  6
CONTINUOUS
100
AcDbLine
 10
-1.94999999999999
 20
1.5
 11
-3.05000000000001
 21
-1.5
  0
LINE
  5
183
100
AcDbEntity
  8
1
  6
CONTINUOUS
100
AcDbLine
 10
-2.69999999999999
 20
1.5
 11
-3.80000000000001
 21
-1.5
  0
LINE
  5
184
100
AcDbEntity
  8
1
  6
CONTINUOUS
100
AcDbLine
 10
-3.39999999999998
 20
1.5
 11
-3.80000000000001
 21
-1.5
  0
LINE
  5
185
100
AcDbEntity
  8
1
  6
CONTINUOUS
100
AcDbLine
 10
-3.39999999999998
 20
1.5
 11
-4.5
 21
-1.5
  0
LINE
  5
186
100
AcDbEntity
  8
1
  6
CONTINUOUS
100
AcDbLine
 10
-4.14999999999998
 20
1.5
 11
-5.25
 21
-1.5
  0
LINE
  5
187
100
AcDbEntity
  8
1
  6
CONTINUOUS
100
AcDbLine
 10
-4.85000000000002
 20
1.5
 11
-5.25
 21
-1.5
  0
LINE
  5
188
100
AcDbEntity
  8
1
  6
CONTINUOUS
100
AcDbLine
 10
-4.85000000000002
 20
1.5
 11
-5.94999999999999
 21
-1.5
  0
LINE
  5
189
100
AcDbEntity
  8
1
  6
CONTINUOUS
100
AcDbLine
 10
-5.60000000000002
 20
1.5
 11
-6.69999999999999
 21
-1.5
  0
LINE
  5
18A
100
AcDbEntity
  8
1
  6
CONTINUOUS
100
AcDbLine
 10
-6.69999999999999
 20
-1.5
 11
-6.89999999999998
 21
-2.2
  0
LINE
  5
18B
100
AcDbEntity
  8
1
  6
CONTINUOUS
100
AcDbLine
 10
-6.89999999999998
 20
-2.2
 11
-7.39999999999998
 21
-1.5
  0
LINE
  5
18C
100
AcDbEntity
  8
1
  6
CONTINUOUS
100
AcDbLine
 10
-6.30000000000001
 20
1.5
 11
-6.69999999999999
 21
-1.5
  0
LINE
  5
18D
100
AcDbEntity
  8
1
  6
CONTINUOUS
100
AcDbLine
 10
-6.30000000000001
 20
1.5
 11
-7.39999999999998
 21
-1.5
  0
LINE
  5
18E
100
AcDbEntity
  8
1
  6
CONTINUOUS
100
AcDbLine
 10
-6.69999999999999
 20
1.5
 11
-7.80000000000001
 21
-1.5
  0
LINE
  5
18F
100
AcDbEntity
  8
1
  6
CONTINUOUS
100
AcDbLine
 10
-7.39999999999998
 20
1.5
 11
-7.80000000000001
 21
-1.5
  0
LINE
  5
190
100
AcDbEntity
  8
1
  6
CONTINUOUS
100
AcDbLine
 10
0.0
 20
-1.5
 11
-0.899999999999977
 21
-1.5
  0
LINE
  5
191
100
AcDbEntity
  8
1
  6
CONTINUOUS
100
AcDbLine
 10
-1.59999999999997
 20
-1.5
 11
-2.34999999999997
 21
-1.5
  0
LINE
  5
192
100
AcDbEntity
  8
1
  6
CONTINUOUS
100
AcDbLine
 10
-3.05000000000001
 20
-1.5
 11
-3.80000000000001
 21
-1.5
  0
LINE
  5
193
100
AcDbEntity
  8
1
  6
CONTINUOUS
100
AcDbLine
 10
-4.5
 20
-1.5
 11
-5.25
 21
-1.5
  0
LINE
  5
194
100
AcDbEntity
  8
1
  6
CONTINUOUS
100
AcDbLine
 10
-5.94999999999999
 20
-1.5
 11
-6.69999999999999
 21
-1.5
  0
LINE
  5
195
100
AcDbEntity
  8
1
  6
CONTINUOUS
100
AcDbLine
 10
-7.39999999999998
 20
-1.5
 11
-8.0
 21
-1.5
  0
LINE
  5
196
100
AcDbEntity
  8
1
  6
CONTINUOUS
100
AcDbLine
 10
-8.0
 20
1.75
 11
-11.8
 21
1.75
  0
LINE
  5
197
100
AcDbEntity
  8
1
  6
CONTINUOUS
100
AcDbLine
 10
-11.8
 20
1.75
 11
-13.0
 21
0.0
  0
LINE
  5
198
100
AcDbEntity
  8
1
  6
CONTINUOUS
100
AcDbLine
 10
-8.0
 20
1.75
 11
-13.0
 21
0.0
  0
ARC
  5
199
100
AcDbEntity
  8
1
  6
CONTINUOUS
100
AcDbCircle
 10
-15.5518880116721
 20
9.93018210553383
 40
11.1331213871283
100
AcDbArc
 50
290.942074504597
 51
312.712985072654
  0
LINE
  5
19A
100
AcDbEntity
  8
1
  6
CONTINUOUS
100
AcDbLine
 10
-1.25
 20
1.5
 11
-1.44999999999999
 21
2.2
  0
LINE
  5
19B
100
AcDbEntity
  8
1
  6
CONTINUOUS
100
AcDbLine
 10
-1.44999999999999
 20
2.2
 11
-1.94999999999999
 21
1.5
  0
LINE
  5
19C
100
AcDbEntity
  8
1
  6
CONTINUOUS
100
AcDbLine
 10
-2.69999999999999
 20
1.5
 11
-2.89999999999998
 21
2.2
  0
LINE
  5
19D
100
AcDbEntity
  8
1
  6
CONTINUOUS
100
AcDbLine
 10
-2.89999999999998
 20
2.2
 11
-3.39999999999998
 21
1.5
  0
LINE
  5
19E
100
AcDbEntity
  8
1
  6
CONTINUOUS
100
AcDbLine
 10
-4.14999999999998
 20
1.5
 11
-4.34999999999997
 21
2.2
  0
LINE
  5
19F
100
AcDbEntity
  8
1
  6
CONTINUOUS
100
AcDbLine
 10
-4.34999999999997
 20
2.2
 11
-4.85000000000002
 21
1.5
  0
LINE
  5
1A0
100
AcDbEntity
  8
1
  6
CONTINUOUS
100
AcDbLine
 10
-5.60000000000002
 20
1.5
 11
-5.80000000000001
 21
2.2
  0
LINE
  5
1A1
100
AcDbEntity
  8
1
  6
CONTINUOUS
100
AcDbLine
 10
-5.80000000000001
 20
2.2
 11
-6.30000000000001
 21
1.5
  0
LINE
  5
1A2
100
AcDbEntity
  8
1
  6
CONTINUOUS
100
AcDbLine
 10
-6.69999999999999
 20
1.5
 11
-6.89999999999998
 21
2.2
  0
LINE
  5
1A3
100
AcDbEntity
  8
1
  6
CONTINUOUS
100
AcDbLine
 10
-6.89999999999998
 20
2.2
 11
-7.39999999999998
 21
1.5
  0
LINE
  5
1A4
100
AcDbEntity
  8
1
  6
CONTINUOUS
100
AcDbLine
 10
0.0
 20
1.5
 11
-1.25
 21
1.5
  0
LINE
  5
1A5
100
AcDbEntity
  8
1
  6
CONTINUOUS
100
AcDbLine
 10
-1.94999999999999
 20
1.5
 11
-2.69999999999999
 21
1.5
  0
LINE
  5
1A6
100
AcDbEntity
  8
1
  6
CONTINUOUS
100
AcDbLine
 10
-3.39999999999998
 20
1.5
 11
-4.14999999999998
 21
1.5
  0
LINE
  5
1A7
100
AcDbEntity
  8
1
  6
CONTINUOUS
100
AcDbLine
 10
-4.85000000000002
 20
1.5
 11
-5.60000000000002
 21
1.5
  0
LINE
  5
1A8
100
AcDbEntity
  8
1
  6
CONTINUOUS
100
AcDbLine
 10
-6.30000000000001
 20
1.5
 11
-6.69999999999999
 21
1.5
  0
LINE
  5
1A9
100
AcDbEntity
  8
1
  6
CONTINUOUS
100
AcDbLine
 10
-7.39999999999998
 20
1.5
 11
-8.0
 21
1.5
  0
LINE
  5
1AA
100
AcDbEntity
  8
1
  6
CONTINUOUS
100
AcDbLine
 10
-13.0
 20
0.0
 11
-11.5726440622869
 21
-0.467510398662178
  0
LINE
  5
1AB
100
AcDbEntity
  8
1
  6
CONTINUOUS
100
AcDbLine
 10
1.21673936301789
 20
1.73768389601871
 11
0.0
 21
0.0
  0
ARC
  5
1AC
100
AcDbEntity
  8
1
  6
CONTINUOUS
100
AcDbCircle
 10
-1.74385964912284
 20
0.0
 40
4.59385964912281
100
AcDbArc
 50
292.309319477857
 51
67.690680522143
  0
LINE
  5
1AD
100
AcDbEntity
  8
1
  6
CONTINUOUS
100
AcDbLine
 10
2.41599382968076
 20
1.94914481522651
 11
1.21673936301789
 21
1.73768389601871
  0
LINE
  5
1AE
100
AcDbEntity
  8
1
  6
CONTINUOUS
100
AcDbLine
 10
1.21673936301789
 20
-1.73768389601871
 11
0.0
 21
0.0
  0
LINE
  5
1AF
100
AcDbEntity
  8
1
  6
CONTINUOUS
100
AcDbLine
 10
2.41599382968076
 20
-1.94914481522651
 11
1.21673936301789
 21
-1.73768389601871
  0
LINE
  5
1B0
100
AcDbEntity
  8
1
  6
CONTINUOUS
100
AcDbLine
 10
0.0
 20
-4.25
 11
0.0
 21
4.25
  0
ENDBLK
  5
1B1
100
AcDbEntity
  8
1
100
AcDbBlockEnd
  0
BLOCK
  5
223
100
AcDbEntity
  8
1
100
AcDbBlockBegin
  2
あ_0004
 70
    64
 10
0.0
 20
0.0
  0
LINE
  5
224
100
AcDbEntity
  8
1
  6
CONTINUOUS
100
AcDbLine
 10
-27.1810814436092
 20
19.8696083577462
 11
-29.4810814436092
 21
17.5696083577462
  0
LINE
  5
225
100
AcDbEntity
  8
1
  6
CONTINUOUS
100
AcDbLine
 10
-27.1810814436092
 20
17.7482880141865
 11
-29.4810814436092
 21
15.4482880141865
  0
LINE
  5
226
100
AcDbEntity
  8
1
  6
CONTINUOUS
100
AcDbLine
 10
70.5189185563908
 20
17.7482880141865
 11
68.2189185563908
 21
15.4482880141865
  0
LINE
  5
227
100
AcDbEntity
  8
1
  6
CONTINUOUS
100
AcDbLine
 10
70.5189185563908
 20
19.8696083577462
 11
68.2189185563908
 21
17.5696083577462
  0
LINE
  5
228
100
AcDbEntity
  8
1
  6
CONTINUOUS
100
AcDbLine
 10
55.1226139183747
 20
-3.02297303842944
 11
52.8226139183747
 21
-5.32297303842944
  0
LINE
  5
229
100
AcDbEntity
  8
1
  6
CONTINUOUS
100
AcDbLine
 10
50.7012935748151
 20
-5.32297303842944
 11
53.0012935748151
 21
-3.02297303842944
  0
LINE
  5
22A
100
AcDbEntity
  8
1
  6
CONTINUOUS
100
AcDbLine
 10
-5.80682770689486
 20
-3.02297303842944
 11
-8.10682770689482
 21
-5.32297303842944
  0
LINE
  5
22B
100
AcDbEntity
  8
1
  6
CONTINUOUS
100
AcDbLine
 10
-10.2281480504545
 20
-5.32297303842944
 11
-7.92814805045452
 21
-3.02297303842944
  0
LINE
  5
22C
100
AcDbEntity
  8
1
  6
CONTINUOUS
100
AcDbLine
 10
62.0258621530435
 20
44.6770269615706
 11
59.7258621530435
 21
42.3770269615706
  0
LINE
  5
22D
100
AcDbEntity
  8
1
  6
CONTINUOUS
100
AcDbLine
 10
59.9045418094839
 20
44.6770269615706
 11
57.6045418094839
 21
42.3770269615706
  0
LINE
  5
22E
100
AcDbEntity
  8
1
  6
CONTINUOUS
100
AcDbLine
 10
-16.8433902388293
 20
44.6770269615706
 11
-19.1433902388293
 21
42.3770269615706
  0
LINE
  5
22F
100
AcDbEntity
  8
1
  6
CONTINUOUS
100
AcDbLine
 10
-18.9647105823889
 20
44.6770269615706
 11
-21.2647105823889
 21
42.3770269615706
  0
LWPOLYLINE
  5
230
100
AcDbEntity
  8
1
  6
CONTINUOUS
100
AcDbPolyline
 90
       21
 70
     1
 43
0.0
 10
65.5189185563908
 20
42.3770269615706
 10
50.5189185563908
 20
42.3770269615706
 10
50.5189185563908
 20
44.6770269615706
 10
65.5189185563908
 20
44.6770269615706
 42
-0.414213562373085
 10
70.5189185563908
 20
39.6770269615706
 10
70.5189185563908
 20
-0.322973038429438
 42
-0.414213562373084
 10
65.5189185563908
 20
-5.32297303842944
 10
-24.4810814436092
 20
-5.32297303842944
 42
-0.414213562373105
 10
-29.4810814436092
 20
-0.322973038429438
 10
-29.4810814436092
 20
39.6770269615706
 42
-0.414213562373092
 10
-24.4810814436092
 20
44.6770269615706
 10
-9.48108144360918
 20
44.6770269615706
 10
-9.48108144360918
 20
42.3770269615706
 10
-24.4810814436092
 20
42.3770269615706
 42
0.414213562373075
 10
-27.1810814436092
 20
39.6770269615706
 10
-27.1810814436092
 20
-0.322973038429438
 42
0.414213562373107
 10
-24.4810814436092
 20
-3.02297303842944
 10
65.5189185563908
 20
-3.02297303842944
 42
0.414213562373073
 10
68.2189185563908
 20
-0.322973038429438
 10
68.2189185563908
 20
39.6770269615706
 42
0.414213562373115
 10
65.5189185563908
 20
42.3770269615706
  0
ENDBLK
  5
231
100
AcDbEntity
  8
1
100
AcDbBlockEnd
  0
BLOCK
  5
272
100
AcDbEntity
  8
1
100
AcDbBlockBegin
  2
M5ヘックス25_0005
 70
    64
 10
0.0
 20
0.0
  0
LINE
  5
273
100
AcDbEntity
  8
1
  6
CONTINUOUS
100
AcDbLine
 10
-1.80000000000001
 20
0.899999999999999
 11
-2.5
 21
1.09999999999999
  0
LINE
  5
274
100
AcDbEntity
  8
1
  6
CONTINUOUS
100
AcDbLine
 10
-2.5
 20
1.09999999999999
 11
-1.80000000000001
 21
1.59999999999999
  0
LINE
  5
275
100
AcDbEntity
  8
1
  6
CONTINUOUS
100
AcDbLine
 10
-1.80000000000001
 20
2.34999999999999
 11
-2.5
 21
2.55
  0
LINE
  5
276
100
AcDbEntity
  8
1
  6
CONTINUOUS
100
AcDbLine
 10
-2.5
 20
2.55
 11
-1.80000000000001
 21
3.05
  0
LINE
  5
277
100
AcDbEntity
  8
1
  6
CONTINUOUS
100
AcDbLine
 10
-1.80000000000001
 20
3.8
 11
-2.5
 21
4.0
  0
LINE
  5
278
100
AcDbEntity
  8
1
  6
CONTINUOUS
100
AcDbLine
 10
-2.5
 20
4.0
 11
-1.80000000000001
 21
4.5
  0
LINE
  5
279
100
AcDbEntity
  8
1
  6
CONTINUOUS
100
AcDbLine
 10
-1.80000000000001
 20
5.25
 11
-2.5
 21
5.45
  0
LINE
  5
27A
100
AcDbEntity
  8
1
  6
CONTINUOUS
100
AcDbLine
 10
-2.5
 20
5.45
 11
-1.80000000000001
 21
5.95
  0
LINE
  5
27B
100
AcDbEntity
  8
1
  6
CONTINUOUS
100
AcDbLine
 10
-1.80000000000001
 20
6.7
 11
-2.5
 21
6.9
  0
LINE
  5
27C
100
AcDbEntity
  8
1
  6
CONTINUOUS
100
AcDbLine
 10
-2.5
 20
6.9
 11
-1.80000000000001
 21
7.4
  0
LINE
  5
27D
100
AcDbEntity
  8
1
  6
CONTINUOUS
100
AcDbLine
 10
1.80000000000001
 20
1.25
 11
2.5
 21
1.45
  0
LINE
  5
27E
100
AcDbEntity
  8
1
  6
CONTINUOUS
100
AcDbLine
 10
2.5
 20
1.45
 11
1.80000000000001
 21
1.95
  0
LINE
  5
27F
100
AcDbEntity
  8
1
  6
CONTINUOUS
100
AcDbLine
 10
1.80000000000001
 20
2.7
 11
2.5
 21
2.9
  0
LINE
  5
280
100
AcDbEntity
  8
1
  6
CONTINUOUS
100
AcDbLine
 10
2.5
 20
2.9
 11
1.80000000000001
 21
3.4
  0
LINE
  5
281
100
AcDbEntity
  8
1
  6
CONTINUOUS
100
AcDbLine
 10
1.80000000000001
 20
4.15
 11
2.5
 21
4.34999999999999
  0
LINE
  5
282
100
AcDbEntity
  8
1
  6
CONTINUOUS
100
AcDbLine
 10
2.5
 20
4.34999999999999
 11
1.80000000000001
 21
4.85
  0
LINE
  5
283
100
AcDbEntity
  8
1
  6
CONTINUOUS
100
AcDbLine
 10
1.80000000000001
 20
5.6
 11
2.5
 21
5.8
  0
LINE
  5
284
100
AcDbEntity
  8
1
  6
CONTINUOUS
100
AcDbLine
 10
2.5
 20
5.8
 11
1.80000000000001
 21
6.3
  0
LINE
  5
285
100
AcDbEntity
  8
1
  6
CONTINUOUS
100
AcDbLine
 10
-2.5
 20
17.0
 11
-2.5
 21
23.2857142857143
  0
LINE
  5
286
100
AcDbEntity
  8
1
  6
CONTINUOUS
100
AcDbLine
 10
2.5
 20
17.0
 11
2.5
 21
23.2857142857143
  0
LINE
  5
287
100
AcDbEntity
  8
1
  6
CONTINUOUS
100
AcDbLine
 10
-2.5
 20
8.35
 11
-1.80000000000001
 21
8.85
  0
LINE
  5
288
100
AcDbEntity
  8
1
  6
CONTINUOUS
100
AcDbLine
 10
-1.80000000000001
 20
8.15
 11
-2.5
 21
8.35
  0
LINE
  5
289
100
AcDbEntity
  8
1
  6
CONTINUOUS
100
AcDbLine
 10
2.5
 20
7.25
 11
1.80000000000001
 21
7.75
  0
LINE
  5
28A
100
AcDbEntity
  8
1
  6
CONTINUOUS
100
AcDbLine
 10
1.80000000000001
 20
7.05
 11
2.5
 21
7.25
  0
LINE
  5
28B
100
AcDbEntity
  8
1
  6
CONTINUOUS
100
AcDbLine
 10
1.80000000000001
 20
8.49999999999999
 11
2.5
 21
8.7
  0
LINE
  5
28C
100
AcDbEntity
  8
1
  6
CONTINUOUS
100
AcDbLine
 10
2.5
 20
8.7
 11
1.80000000000001
 21
9.2
  0
LINE
  5
28D
100
AcDbEntity
  8
1
  6
CONTINUOUS
100
AcDbLine
 10
0.0
 20
-6.0
 11
0.0
 21
26.2
  0
LINE
  5
28E
100
AcDbEntity
  8
1
  6
CONTINUOUS
100
AcDbLine
 10
-2.5
 20
9.8
 11
-1.80000000000001
 21
10.3
  0
LINE
  5
28F
100
AcDbEntity
  8
1
  6
CONTINUOUS
100
AcDbLine
 10
-1.80000000000001
 20
9.59999999999999
 11
-2.5
 21
9.8
  0
LINE
  5
290
100
AcDbEntity
  8
1
  6
CONTINUOUS
100
AcDbLine
 10
1.80000000000001
 20
9.94999999999999
 11
2.5
 21
10.15
  0
LINE
  5
291
100
AcDbEntity
  8
1
  6
CONTINUOUS
100
AcDbLine
 10
2.5
 20
10.15
 11
1.80000000000001
 21
10.65
  0
LINE
  5
292
100
AcDbEntity
  8
1
  6
CONTINUOUS
100
AcDbLine
 10
-2.5
 20
11.25
 11
-1.80000000000001
 21
11.75
  0
LINE
  5
293
100
AcDbEntity
  8
1
  6
CONTINUOUS
100
AcDbLine
 10
-1.80000000000001
 20
11.05
 11
-2.5
 21
11.25
  0
LINE
  5
294
100
AcDbEntity
  8
1
  6
CONTINUOUS
100
AcDbLine
 10
1.80000000000001
 20
12.95
 11
2.5
 21
13.15
  0
LINE
  5
295
100
AcDbEntity
  8
1
  6
CONTINUOUS
100
AcDbLine
 10
2.5
 20
13.15
 11
1.80000000000001
 21
13.65
  0
LINE
  5
296
100
AcDbEntity
  8
1
  6
CONTINUOUS
100
AcDbLine
 10
-2.5
 20
14.25
 11
-1.80000000000001
 21
14.75
  0
LINE
  5
297
100
AcDbEntity
  8
1
  6
CONTINUOUS
100
AcDbLine
 10
-1.80000000000001
 20
14.05
 11
-2.5
 21
14.25
  0
LINE
  5
298
100
AcDbEntity
  8
1
  6
CONTINUOUS
100
AcDbLine
 10
2.5
 20
11.7
 11
1.80000000000001
 21
12.2
  0
LINE
  5
299
100
AcDbEntity
  8
1
  6
CONTINUOUS
100
AcDbLine
 10
1.80000000000001
 20
11.5
 11
2.5
 21
11.7
  0
LINE
  5
29A
100
AcDbEntity
  8
1
  6
CONTINUOUS
100
AcDbLine
 10
-2.5
 20
12.8
 11
-1.80000000000001
 21
13.3
  0
LINE
  5
29B
100
AcDbEntity
  8
1
  6
CONTINUOUS
100
AcDbLine
 10
-1.80000000000001
 20
12.6
 11
-2.5
 21
12.8
  0
LINE
  5
29C
100
AcDbEntity
  8
1
  6
CONTINUOUS
100
AcDbLine
 10
1.80000000000001
 20
15.95
 11
2.5
 21
16.15
  0
LINE
  5
29D
100
AcDbEntity
  8
1
  6
CONTINUOUS
100
AcDbLine
 10
2.5
 20
16.15
 11
1.80000000000001
 21
16.65
  0
LINE
  5
29E
100
AcDbEntity
  8
1
  6
CONTINUOUS
100
AcDbLine
 10
1.80000000000001
 20
14.5
 11
2.5
 21
14.7
  0
LINE
  5
29F
100
AcDbEntity
  8
1
  6
CONTINUOUS
100
AcDbLine
 10
2.5
 20
14.7
 11
1.80000000000001
 21
15.2
  0
LINE
  5
2A0
100
AcDbEntity
  8
1
  6
CONTINUOUS
100
AcDbLine
 10
-2.5
 20
15.8
 11
-1.80000000000001
 21
16.3
  0
LINE
  5
2A1
100
AcDbEntity
  8
1
  6
CONTINUOUS
100
AcDbLine
 10
-1.80000000000001
 20
15.6
 11
-2.5
 21
15.8
  0
LINE
  5
2A2
100
AcDbEntity
  8
1
  6
CONTINUOUS
100
AcDbLine
 10
-1.80000000000001
 20
0.899999999999999
 11
1.80000000000001
 21
0.0
  0
LINE
  5
2A3
100
AcDbEntity
  8
1
  6
CONTINUOUS
100
AcDbLine
 10
1.80000000000001
 20
0.0
 11
-1.80000000000001
 21
1.59999999999999
  0
LINE
  5
2A4
100
AcDbEntity
  8
1
  6
CONTINUOUS
100
AcDbLine
 10
1.80000000000001
 20
1.25
 11
-1.80000000000001
 21
2.34999999999999
  0
LINE
  5
2A5
100
AcDbEntity
  8
1
  6
CONTINUOUS
100
AcDbLine
 10
-1.80000000000001
 20
3.05
 11
1.80000000000001
 21
1.95
  0
LINE
  5
2A6
100
AcDbEntity
  8
1
  6
CONTINUOUS
100
AcDbLine
 10
2.5
 20
1.45
 11
-2.5
 21
2.55
  0
LINE
  5
2A7
100
AcDbEntity
  8
1
  6
CONTINUOUS
100
AcDbLine
 10
1.80000000000001
 20
2.7
 11
-1.80000000000001
 21
3.8
  0
LINE
  5
2A8
100
AcDbEntity
  8
1
  6
CONTINUOUS
100
AcDbLine
 10
1.80000000000001
 20
3.4
 11
-1.80000000000001
 21
4.5
  0
LINE
  5
2A9
100
AcDbEntity
  8
1
  6
CONTINUOUS
100
AcDbLine
 10
1.80000000000001
 20
4.15
 11
-1.80000000000001
 21
5.25
  0
LINE
  5
2AA
100
AcDbEntity
  8
1
  6
CONTINUOUS
100
AcDbLine
 10
1.80000000000001
 20
4.85
 11
-1.80000000000001
 21
5.95
  0
LINE
  5
2AB
100
AcDbEntity
  8
1
  6
CONTINUOUS
100
AcDbLine
 10
1.80000000000001
 20
5.6
 11
-1.80000000000001
 21
6.7
  0
LINE
  5
2AC
100
AcDbEntity
  8
1
  6
CONTINUOUS
100
AcDbLine
 10
1.80000000000001
 20
6.3
 11
-1.80000000000001
 21
7.4
  0
LINE
  5
2AD
100
AcDbEntity
  8
1
  6
CONTINUOUS
100
AcDbLine
 10
2.5
 20
2.9
 11
-2.5
 21
4.0
  0
LINE
  5
2AE
100
AcDbEntity
  8
1
  6
CONTINUOUS
100
AcDbLine
 10
2.5
 20
4.34999999999999
 11
-2.5
 21
5.45
  0
LINE
  5
2AF
100
AcDbEntity
  8
1
  6
CONTINUOUS
100
AcDbLine
 10
2.5
 20
5.8
 11
-2.5
 21
6.9
  0
LINE
  5
2B0
100
AcDbEntity
  8
1
  6
CONTINUOUS
100
AcDbLine
 10
1.80000000000001
 20
7.05
 11
-1.80000000000001
 21
8.15
  0
LINE
  5
2B1
100
AcDbEntity
  8
1
  6
CONTINUOUS
100
AcDbLine
 10
1.80000000000001
 20
7.75
 11
-1.80000000000001
 21
8.85
  0
LINE
  5
2B2
100
AcDbEntity
  8
1
  6
CONTINUOUS
100
AcDbLine
 10
1.80000000000001
 20
8.49999999999999
 11
-1.80000000000001
 21
9.59999999999999
  0
LINE
  5
2B3
100
AcDbEntity
  8
1
  6
CONTINUOUS
100
AcDbLine
 10
1.80000000000001
 20
9.2
 11
-1.80000000000001
 21
10.3
  0
LINE
  5
2B4
100
AcDbEntity
  8
1
  6
CONTINUOUS
100
AcDbLine
 10
1.80000000000001
 20
9.94999999999999
 11
-1.80000000000001
 21
11.05
  0
LINE
  5
2B5
100
AcDbEntity
  8
1
  6
CONTINUOUS
100
AcDbLine
 10
1.80000000000001
 20
10.65
 11
-1.80000000000001
 21
11.75
  0
LINE
  5
2B6
100
AcDbEntity
  8
1
  6
CONTINUOUS
100
AcDbLine
 10
1.80000000000001
 20
12.2
 11
-1.80000000000001
 21
13.3
  0
LINE
  5
2B7
100
AcDbEntity
  8
1
  6
CONTINUOUS
100
AcDbLine
 10
-1.80000000000001
 20
0.0
 11
-1.80000000000001
 21
0.899999999999999
  0
LINE
  5
2B8
100
AcDbEntity
  8
1
  6
CONTINUOUS
100
AcDbLine
 10
-1.80000000000001
 20
1.59999999999999
 11
-1.80000000000001
 21
2.34999999999999
  0
LINE
  5
2B9
100
AcDbEntity
  8
1
  6
CONTINUOUS
100
AcDbLine
 10
-1.80000000000001
 20
3.05
 11
-1.80000000000001
 21
3.8
  0
LINE
  5
2BA
100
AcDbEntity
  8
1
  6
CONTINUOUS
100
AcDbLine
 10
-1.80000000000001
 20
4.5
 11
-1.80000000000001
 21
5.25
  0
LINE
  5
2BB
100
AcDbEntity
  8
1
  6
CONTINUOUS
100
AcDbLine
 10
-1.80000000000001
 20
5.95
 11
-1.80000000000001
 21
6.7
  0
LINE
  5
2BC
100
AcDbEntity
  8
1
  6
CONTINUOUS
100
AcDbLine
 10
-1.80000000000001
 20
7.4
 11
-1.80000000000001
 21
8.15
  0
LINE
  5
2BD
100
AcDbEntity
  8
1
  6
CONTINUOUS
100
AcDbLine
 10
-1.80000000000001
 20
8.85
 11
-1.80000000000001
 21
9.59999999999999
  0
LINE
  5
2BE
100
AcDbEntity
  8
1
  6
CONTINUOUS
100
AcDbLine
 10
-1.80000000000001
 20
10.3
 11
-1.80000000000001
 21
11.05
  0
LINE
  5
2BF
100
AcDbEntity
  8
1
  6
CONTINUOUS
100
AcDbLine
 10
-1.80000000000001
 20
11.75
 11
-1.80000000000001
 21
12.6
  0
LINE
  5
2C0
100
AcDbEntity
  8
1
  6
CONTINUOUS
100
AcDbLine
 10
-1.80000000000001
 20
13.3
 11
-1.80000000000001
 21
14.05
  0
LINE
  5
2C1
100
AcDbEntity
  8
1
  6
CONTINUOUS
100
AcDbLine
 10
-1.80000000000001
 20
14.75
 11
-1.80000000000001
 21
15.6
  0
LINE
  5
2C2
100
AcDbEntity
  8
1
  6
CONTINUOUS
100
AcDbLine
 10
-1.80000000000001
 20
16.3
 11
-1.80000000000001
 21
17.0
  0
LINE
  5
2C3
100
AcDbEntity
  8
1
  6
CONTINUOUS
100
AcDbLine
 10
1.80000000000001
 20
0.0
 11
1.80000000000001
 21
1.25
  0
LINE
  5
2C4
100
AcDbEntity
  8
1
  6
CONTINUOUS
100
AcDbLine
 10
1.80000000000001
 20
1.95
 11
1.80000000000001
 21
2.7
  0
LINE
  5
2C5
100
AcDbEntity
  8
1
  6
CONTINUOUS
100
AcDbLine
 10
1.80000000000001
 20
3.4
 11
1.80000000000001
 21
4.15
  0
LINE
  5
2C6
100
AcDbEntity
  8
1
  6
CONTINUOUS
100
AcDbLine
 10
1.80000000000001
 20
4.85
 11
1.80000000000001
 21
5.6
  0
LINE
  5
2C7
100
AcDbEntity
  8
1
  6
CONTINUOUS
100
AcDbLine
 10
1.80000000000001
 20
6.3
 11
1.80000000000001
 21
7.05
  0
LINE
  5
2C8
100
AcDbEntity
  8
1
  6
CONTINUOUS
100
AcDbLine
 10
1.80000000000001
 20
7.75
 11
1.80000000000001
 21
8.49999999999999
  0
LINE
  5
2C9
100
AcDbEntity
  8
1
  6
CONTINUOUS
100
AcDbLine
 10
1.80000000000001
 20
9.2
 11
1.80000000000001
 21
9.94999999999999
  0
LINE
  5
2CA
100
AcDbEntity
  8
1
  6
CONTINUOUS
100
AcDbLine
 10
1.80000000000001
 20
10.65
 11
1.80000000000001
 21
11.5
  0
LINE
  5
2CB
100
AcDbEntity
  8
1
  6
CONTINUOUS
100
AcDbLine
 10
1.80000000000001
 20
12.2
 11
1.80000000000001
 21
12.95
  0
LINE
  5
2CC
100
AcDbEntity
  8
1
  6
CONTINUOUS
100
AcDbLine
 10
1.80000000000001
 20
13.65
 11
1.80000000000001
 21
14.5
  0
LINE
  5
2CD
100
AcDbEntity
  8
1
  6
CONTINUOUS
100
AcDbLine
 10
1.80000000000001
 20
15.2
 11
1.80000000000001
 21
15.95
  0
LINE
  5
2CE
100
AcDbEntity
  8
1
  6
CONTINUOUS
100
AcDbLine
 10
2.5
 20
7.25
 11
-2.5
 21
8.35
  0
LINE
  5
2CF
100
AcDbEntity
  8
1
  6
CONTINUOUS
100
AcDbLine
 10
2.5
 20
8.7
 11
-2.5
 21
9.8
  0
LINE
  5
2D0
100
AcDbEntity
  8
1
  6
CONTINUOUS
100
AcDbLine
 10
2.5
 20
10.15
 11
-2.5
 21
11.25
  0
LINE
  5
2D1
100
AcDbEntity
  8
1
  6
CONTINUOUS
100
AcDbLine
 10
2.5
 20
11.7
 11
-2.5
 21
12.8
  0
LINE
  5
2D2
100
AcDbEntity
  8
1
  6
CONTINUOUS
100
AcDbLine
 10
-1.80000000000001
 20
12.6
 11
1.80000000000001
 21
11.5
  0
LINE
  5
2D3
100
AcDbEntity
  8
1
  6
CONTINUOUS
100
AcDbLine
 10
2.5
 20
13.15
 11
-2.5
 21
14.25
  0
LINE
  5
2D4
100
AcDbEntity
  8
1
  6
CONTINUOUS
100
AcDbLine
 10
-1.80000000000001
 20
14.05
 11
1.80000000000001
 21
12.95
  0
LINE
  5
2D5
100
AcDbEntity
  8
1
  6
CONTINUOUS
100
AcDbLine
 10
1.80000000000001
 20
13.65
 11
-1.80000000000001
 21
14.75
  0
LINE
  5
2D6
100
AcDbEntity
  8
1
  6
CONTINUOUS
100
AcDbLine
 10
1.80000000000001
 20
14.5
 11
-1.80000000000001
 21
15.6
  0
LINE
  5
2D7
100
AcDbEntity
  8
1
  6
CONTINUOUS
100
AcDbLine
 10
-1.80000000000001
 20
16.3
 11
1.80000000000001
 21
15.2
  0
LINE
  5
2D8
100
AcDbEntity
  8
1
  6
CONTINUOUS
100
AcDbLine
 10
2.5
 20
14.7
 11
-2.5
 21
15.8
  0
LINE
  5
2D9
100
AcDbEntity
  8
1
  6
CONTINUOUS
100
AcDbLine
 10
0.0
 20
25.0
 11
-2.5
 21
23.2857142857143
  0
LINE
  5
2DA
100
AcDbEntity
  8
1
  6
CONTINUOUS
100
AcDbLine
 10
0.0
 20
25.0
 11
2.5
 21
23.2857142857143
  0
LINE
  5
2DB
100
AcDbEntity
  8
1
  6
CONTINUOUS
100
AcDbLine
 10
2.5
 20
17.0
 11
-2.5
 21
17.0
  0
LINE
  5
2DC
100
AcDbEntity
  8
1
  6
CONTINUOUS
100
AcDbLine
 10
0.0
 20
25.0
 11
-0.94033772808433
 21
21.9361653496112
  0
ARC
  5
2DD
100
AcDbEntity
  8
1
  6
CONTINUOUS
100
AcDbCircle
 10
-0.851099445919374
 20
23.615315981328
 40
1.68152023924745
100
AcDbArc
 50
191.303971246172
 51
266.957883753446
  0
ARC
  5
2DE
100
AcDbEntity
  8
1
  6
CONTINUOUS
100
AcDbCircle
 10
5.9104397605837
 20
23.0439406878937
 40
6.9397635694127
100
AcDbArc
 50
189.185260847557
 51
240.565084286816
  0
LINE
  5
2DF
100
AcDbEntity
  8
1
  6
CONTINUOUS
100
AcDbLine
 10
2.5
 20
17.0
 11
0.0
 21
25.0
  0
LINE
  5
2E0
100
AcDbEntity
  8
1
  6
CONTINUOUS
100
AcDbLine
 10
-2.30940107675849
 20
-4.13333333333334
 11
-2.30940107675849
 21
-1.66666666666667
  0
LINE
  5
2E1
100
AcDbEntity
  8
1
  6
CONTINUOUS
100
AcDbLine
 10
-3.46410161513774
 20
-4.8
 11
3.46410161513774
 21
-4.8
  0
LINE
  5
2E2
100
AcDbEntity
  8
1
  6
CONTINUOUS
100
AcDbLine
 10
4.61880215351698
 20
-4.13333333333334
 11
4.61880215351698
 21
-1.5
  0
LINE
  5
2E3
100
AcDbEntity
  8
1
  6
CONTINUOUS
100
AcDbLine
 10
-4.61880215351698
 20
-4.13333333333334
 11
-4.61880215351698
 21
-1.5
  0
LINE
  5
2E4
100
AcDbEntity
  8
1
  6
CONTINUOUS
100
AcDbLine
 10
-6.0
 20
-1.0
 11
6.0
 21
-1.0
  0
LINE
  5
2E5
100
AcDbEntity
  8
1
  6
CONTINUOUS
100
AcDbLine
 10
-6.0
 20
0.0
 11
6.0
 21
0.0
  0
ARC
  5
2E6
100
AcDbEntity
  8
1
  6
CONTINUOUS
100
AcDbCircle
 10
3.46410161513774
 20
-3.46666666666667
 40
1.33333333333334
100
AcDbArc
 50
210.0
 51
330.0
  0
ARC
  5
2E7
100
AcDbEntity
  8
1
  6
CONTINUOUS
100
AcDbCircle
 10
0.0
 20
-0.466666666666654
 40
4.33333333333334
100
AcDbArc
 50
237.795772496028
 51
302.204227503972
  0
ARC
  5
2E8
100
AcDbEntity
  8
1
  6
CONTINUOUS
100
AcDbCircle
 10
-3.46410161513774
 20
-3.46666666666667
 40
1.33333333333333
100
AcDbArc
 50
210.0
 51
330.0
  0
LINE
  5
2E9
100
AcDbEntity
  8
1
  6
CONTINUOUS
100
AcDbLine
 10
6.0
 20
0.0
 11
6.0
 21
-1.0
  0
LINE
  5
2EA
100
AcDbEntity
  8
1
  6
CONTINUOUS
100
AcDbLine
 10
-6.0
 20
0.0
 11
-6.0
 21
-1.0
  0
LINE
  5
2EB
100
AcDbEntity
  8
1
  6
CONTINUOUS
100
AcDbLine
 10
2.30940107675849
 20
-4.13333333333334
 11
2.30940107675849
 21
-1.66666666666666
  0
ARC
  5
2EC
100
AcDbEntity
  8
1
  6
CONTINUOUS
100
AcDbCircle
 10
0.0
 20
-5.33333333333334
 40
4.33333333333334
100
AcDbArc
 50
57.7957724960281
 51
122.204227503972
  0
ARC
  5
2ED
100
AcDbEntity
  8
1
  6
CONTINUOUS
100
AcDbCircle
 10
-3.46410161513774
 20
-2.33333333333334
 40
1.33333333333333
100
AcDbArc
 50
30.0
 51
90.0
  0
ARC
  5
2EE
100
AcDbEntity
  8
1
  6
CONTINUOUS
100
AcDbCircle
 10
3.46410161513774
 20
-2.33333333333334
 40
1.33333333333334
100
AcDbArc
 50
90.0
 51
150.0
  0
ARC
  5
2EF
100
AcDbEntity
  8
1
  6
CONTINUOUS
100
AcDbCircle
 10
-5.11880215351698
 20
-1.5
 40
0.5
100
AcDbArc
 50
0.0
 51
90.0
  0
ARC
  5
2F0
100
AcDbEntity
  8
1
  6
CONTINUOUS
100
AcDbCircle
 10
5.11880215351698
 20
-1.5
 40
0.5
100
AcDbArc
 50
90.0
 51
180.0
  0
LINE
  5
2F1
100
AcDbEntity
  8
1
  6
CONTINUOUS
100
AcDbLine
 10
1.80000000000001
 20
17.0
 11
1.80000000000001
 21
16.65
  0
LINE
  5
2F2
100
AcDbEntity
  8
1
  6
CONTINUOUS
100
AcDbLine
 10
1.80000000000001
 20
15.95
 11
-1.80000000000001
 21
17.0
  0
LINE
  5
2F3
100
AcDbEntity
  8
1
  6
CONTINUOUS
100
AcDbLine
 10
-1.80000000000001
 20
17.0
 11
2.5
 21
16.15
  0
LINE
  5
2F4
100
AcDbEntity
  8
1
  6
CONTINUOUS
100
AcDbLine
 10
1.80000000000001
 20
16.65
 11
-1.80000000000001
 21
17.0
  0
ENDBLK
  5
2F5
100
AcDbEntity
  8
1
100
AcDbBlockEnd
  0
ENDSEC
  0
SECTION
  2
ENTITIES
  0
LWPOLYLINE
  5
24
100
AcDbEntity
  8
1
  6
CONTINUOUS
100
AcDbPolyline
 90
       62
 70
     1
 43
0.0
 10
-36.8776519290253
 20
-19.7969027695062
 42
0.387794582408786
 10
-36.5788941703861
 20
-19.5241754967789
 42
-0.387794582408804
 10
-33.5913165839943
 20
-16.7969027695062
 10
30.6086834160057
 20
-16.7969027695062
 42
0.414213562373106
 10
30.9086834160057
 20
-16.4969027695062
 10
30.9086834160057
 20
-7.09690276950618
 42
0.414213562373096
 10
30.6086834160057
 20
-6.79690276950618
 10
16.2086834160057
 20
-6.79690276950617
 42
-0.414213562373092
 10
15.9086834160057
 20
-6.49690276950617
 10
15.9086834160057
 20
-1.67135903415997
 42
0.245392683956669
 10
15.8229691302914
 20
-1.50722867283031
 42
-0.522232967867088
 10
15.8229691302914
 20
-0.686576866182037
 42
0.24539268395667
 10
15.9086834160057
 20
-0.522446504852379
 10
15.9086834160057
 20
5.60309723049382
 42
0.414213562373112
 10
15.6086834160057
 20
5.90309723049382
 10
13.6086834160057
 20
5.90309723049382
 42
0.414213562373092
 10
12.6086834160057
 20
4.90309723049382
 42
0.41421356237309
 10
12.8086834160057
 20
4.70309723049382
 10
14.8086834160057
 20
4.70309723049382
 42
-0.414213562373112
 10
15.1086834160057
 20
4.40309723049382
 10
15.1086834160057
 20
-6.89690276950618
 42
0.414213562373092
 10
16.1086834160057
 20
-7.89690276950618
 10
29.5086834160057
 20
-7.89690276950618
 42
-0.414213562373099
 10
29.8086834160057
 20
-8.19690276950618
 10
29.8086834160057
 20
-11.6969027695062
 42
-0.414213562373082
 10
29.5086834160057
 20
-11.9969027695062
 10
26.3086834160057
 20
-11.9969027695062
 42
0.414213562373077
 10
25.9086834160057
 20
-12.3969027695062
 42
0.414213562373092
 10
26.3086834160057
 20
-12.7969027695062
 10
29.5086834160057
 20
-12.7969027695062
 42
-0.414213562373079
 10
29.8086834160057
 20
-13.0969027695062
 10
29.8086834160057
 20
-15.3969027695062
 42
-0.414213562373082
 10
29.5086834160057
 20
-15.6969027695062
 10
-37.6913165839943
 20
-15.6969027695062
 42
-0.414213562373082
 10
-37.9913165839943
 20
-15.3969027695062
 10
-37.9913165839943
 20
13.973846890786
 42
-0.376715072980122
 10
-37.7301183392146
 20
14.2713270141418
 10
-18.0301183392146
 20
16.8408922315331
 42
-0.452733422661438
 10
-17.6913165839943
 20
16.5434121081773
 10
-17.6913165839943
 20
15.1315530728172
 42
-0.376715072980116
 10
-17.9525148287739
 20
14.8340729494614
 10
-21.3301183392146
 20
14.3935159698387
 42
0.376715072980118
 10
-21.5913165839943
 20
14.0960358464828
 10
-21.5913165839943
 20
13.5918004767113
 42
0.452733422661439
 10
-21.2525148287739
 20
13.2943203533555
 10
-17.4619773999265
 20
13.7887382788573
 42
0.376715072980117
 10
-16.5913165839943
 20
14.7803386900435
 10
-16.5913165839943
 20
16.4030972304938
 42
-0.414213562373106
 10
-16.2913165839943
 20
16.7030972304938
 10
-14.3913165839943
 20
16.7030972304938
 42
0.414213562373097
 10
-14.0913165839943
 20
17.0030972304938
 10
-14.0913165839943
 20
20.2030972304938
 42
0.414213562373092
 10
-15.0913165839943
 20
21.2030972304938
 10
-15.7913165839943
 20
21.2030972304938
 42
0.414213562373096
 10
-16.0913165839943
 20
20.9030972304938
 10
-16.0913165839943
 20
18.4665080175741
 42
-0.376715072980116
 10
-16.3525148287739
 20
18.1690278942182
 10
-38.8301183392146
 20
15.2371665667694
 42
0.376715072980112
 10
-39.0913165839943
 20
14.9396864434136
 10
-39.0913165839943
 20
-19.4969027695062
 42
0.414213562373082
 10
-38.7913165839943
 20
-19.7969027695062
 10
-36.8776519290253
 20
-19.7969027695062
  0
LWPOLYLINE
  5
26
100
AcDbEntity
  8
1
  6
CONTINUOUS
100
AcDbPolyline
 90
      439
 70
     1
 43
0.0
 10
43.1965513816498
 20
20.9909651961379
 10
43.1208154503617
 20
20.9152292648498
 42
-0.414213562373094
 10
42.6965513816498
 20
20.9152292648498
 10
42.6208154503617
 20
20.9909651961379
 42
0.198912367379703
 10
42.4086834160057
 20
21.0788331617819
 42
0.198912367379701
 10
42.1965513816498
 20
20.9909651961379
 10
42.1208154503617
 20
20.9152292648498
 42
-0.414213562373094
 10
41.6965513816498
 20
20.9152292648498
 10
41.6208154503617
 20
20.9909651961379
 42
0.198912367379703
 10
41.4086834160057
 20
21.0788331617819
 42
0.198912367379701
 10
41.1965513816498
 20
20.9909651961379
 10
41.1208154503617
 20
20.9152292648498
 42
-0.414213562373094
 10
40.6965513816498
 20
20.9152292648498
 10
40.6208154503617
 20
20.9909651961379
 42
0.198912367379703
 10
40.4086834160057
 20
21.0788331617819
 42
0.198912367379701
 10
40.1965513816498
 20
20.9909651961379
 10
40.1208154503617
 20
20.9152292648498
 42
-0.414213562373094
 10
39.6965513816498
 20
20.9152292648498
 10
39.6208154503617
 20
20.9909651961379
 42
0.198912367379703
 10
39.4086834160057
 20
21.0788331617819
 42
0.198912367379701
 10
39.1965513816498
 20
20.9909651961379
 10
39.1208154503617
 20
20.9152292648498
 42
-0.414213562373094
 10
38.6965513816498
 20
20.9152292648498
 10
38.6208154503617
 20
20.9909651961379
 42
0.198912367379703
 10
38.4086834160057
 20
21.0788331617819
 42
0.198912367379701
 10
38.1965513816498
 20
20.9909651961379
 10
38.1208154503617
 20
20.9152292648498
 42
-0.414213562373094
 10
37.6965513816498
 20
20.9152292648498
 10
37.6208154503617
 20
20.9909651961379
 42
0.198912367379703
 10
37.4086834160057
 20
21.0788331617819
 42
0.198912367379701
 10
37.1965513816498
 20
20.9909651961379
 10
37.1208154503617
 20
20.9152292648498
 42
-0.414213562373094
 10
36.6965513816498
 20
20.9152292648498
 10
36.6208154503617
 20
20.9909651961379
 42
0.198912367379703
 10
36.4086834160057
 20
21.0788331617819
 42
0.198912367379701
 10
36.1965513816498
 20
20.9909651961379
 10
36.1208154503617
 20
20.9152292648498
 42
-0.414213562373094
 10
35.6965513816498
 20
20.9152292648498
 10
35.6208154503617
 20
20.9909651961379
 42
0.198912367379703
 10
35.4086834160057
 20
21.0788331617819
 42
0.198912367379701
 10
35.1965513816498
 20
20.9909651961379
 10
35.1208154503617
 20
20.9152292648498
 42
-0.414213562373094
 10
34.6965513816498
 20
20.9152292648498
 10
34.6208154503617
 20
20.9909651961379
 42
0.198912367379703
 10
34.4086834160057
 20
21.0788331617819
 42
0.198912367379701
 10
34.1965513816498
 20
20.9909651961379
 10
34.1208154503617
 20
20.9152292648498
 42
-0.414213562373094
 10
33.6965513816498
 20
20.9152292648498
 10
33.6208154503617
 20
20.9909651961379
 42
0.198912367379703
 10
33.4086834160057
 20
21.0788331617819
 42
0.198912367379701
 10
33.1965513816498
 20
20.9909651961379
 10
33.1208154503617
 20
20.9152292648498
 42
-0.414213562373094
 10
32.6965513816498
 20
20.9152292648498
 10
32.6208154503617
 20
20.9909651961379
 42
0.198912367379703
 10
32.4086834160057
 20
21.0788331617819
 42
0.198912367379701
 10
32.1965513816498
 20
20.9909651961379
 10
32.1208154503617
 20
20.9152292648498
 42
-0.414213562373094
 10
31.6965513816498
 20
20.9152292648498
 10
31.6208154503617
 20
20.9909651961379
 42
0.198912367379697
 10
31.4086834160057
 20
21.0788331617819
 42
0.198912367379684
 10
31.1965513816498
 20
20.9909651961379
 10
31.1208154503617
 20
20.9152292648498
 42
-0.414213562373094
 10
30.6965513816498
 20
20.9152292648498
 10
30.6208154503617
 20
20.9909651961379
 42
0.198912367379697
 10
30.4086834160057
 20
21.0788331617819
 42
0.198912367379684
 10
30.1965513816498
 20
20.9909651961379
 10
30.1208154503617
 20
20.9152292648498
 42
-0.414213562373094
 10
29.6965513816498
 20
20.9152292648498
 10
29.6208154503617
 20
20.9909651961379
 42
0.198912367379697
 10
29.4086834160057
 20
21.0788331617819
 42
0.198912367379684
 10
29.1965513816498
 20
20.9909651961379
 10
29.1208154503617
 20
20.9152292648498
 42
-0.414213562373094
 10
28.6965513816498
 20
20.9152292648498
 10
28.6208154503617
 20
20.9909651961379
 42
0.198912367379697
 10
28.4086834160057
 20
21.0788331617819
 42
0.198912367379684
 10
28.1965513816498
 20
20.9909651961379
 10
28.1208154503617
 20
20.9152292648498
 42
-0.414213562373094
 10
27.6965513816498
 20
20.9152292648498
 10
27.6208154503617
 20
20.9909651961379
 42
0.198912367379697
 10
27.4086834160057
 20
21.0788331617819
 42
0.198912367379684
 10
27.1965513816498
 20
20.9909651961379
 10
27.1208154503617
 20
20.9152292648498
 42
-0.414213562373094
 10
26.6965513816498
 20
20.9152292648498
 10
26.6208154503617
 20
20.9909651961379
 42
0.198912367379697
 10
26.4086834160057
 20
21.0788331617819
 42
0.198912367379684
 10
26.1965513816498
 20
20.9909651961379
 10
26.1208154503617
 20
20.9152292648498
 42
-0.414213562373094
 10
25.6965513816498
 20
20.9152292648498
 10
25.6208154503617
 20
20.9909651961379
 42
0.198912367379697
 10
25.4086834160057
 20
21.0788331617819
 42
0.198912367379684
 10
25.1965513816498
 20
20.9909651961379
 10
25.1208154503617
 20
20.9152292648498
 42
-0.414213562373094
 10
24.6965513816498
 20
20.9152292648498
 10
24.6208154503617
 20
20.9909651961379
 42
0.198912367379697
 10
24.4086834160057
 20
21.0788331617819
 42
0.198912367379684
 10
24.1965513816498
 20
20.9909651961379
 10
24.1208154503617
 20
20.9152292648498
 42
-0.414213562373094
 10
23.6965513816498
 20
20.9152292648498
 10
23.6208154503617
 20
20.9909651961379
 42
0.198912367379697
 10
23.4086834160057
 20
21.0788331617819
 42
0.198912367379684
 10
23.1965513816498
 20
20.9909651961379
 10
23.1208154503617
 20
20.9152292648498
 42
-0.414213562373094
 10
22.6965513816498
 20
20.9152292648498
 10
22.6208154503617
 20
20.9909651961379
 42
0.198912367379697
 10
22.4086834160057
 20
21.0788331617819
 42
0.198912367379684
 10
22.1965513816498
 20
20.9909651961379
 10
22.1208154503617
 20
20.9152292648498
 42
-0.414213562373094
 10
21.6965513816498
 20
20.9152292648498
 10
21.6208154503617
 20
20.9909651961379
 42
0.198912367379697
 10
21.4086834160057
 20
21.0788331617819
 42
0.198912367379684
 10
21.1965513816498
 20
20.9909651961379
 10
21.1208154503617
 20
20.9152292648498
 42
-0.414213562373094
 10
20.6965513816498
 20
20.9152292648498
 10
20.6208154503617
 20
20.9909651961379
 42
0.198912367379697
 10
20.4086834160057
 20
21.0788331617819
 42
0.198912367379684
 10
20.1965513816498
 20
20.9909651961379
 10
20.1208154503617
 20
20.9152292648498
 42
-0.414213562373094
 10
19.6965513816498
 20
20.9152292648498
 10
19.6208154503617
 20
20.9909651961379
 42
0.198912367379697
 10
19.4086834160057
 20
21.0788331617819
 42
0.198912367379684
 10
19.1965513816498
 20
20.9909651961379
 10
19.1208154503617
 20
20.9152292648498
 42
-0.414213562373094
 10
18.6965513816498
 20
20.9152292648498
 10
18.6208154503617
 20
20.9909651961379
 42
0.198912367379697
 10
18.4086834160057
 20
21.0788331617819
 42
0.198912367379684
 10
18.1965513816498
 20
20.9909651961379
 10
18.1208154503617
 20
20.9152292648498
 42
-0.414213562373094
 10
17.6965513816498
 20
20.9152292648498
 10
17.6208154503617
 20
20.9909651961379
 42
0.198912367379666
 10
17.4086834160057
 20
21.0788331617819
 42
0.198912367379684
 10
17.1965513816498
 20
20.9909651961379
 10
17.1208154503617
 20
20.9152292648498
 42
-0.414213562373094
 10
16.6965513816498
 20
20.9152292648498
 10
16.6208154503617
 20
20.9909651961379
 42
0.198912367379666
 10
16.4086834160057
 20
21.0788331617819
 42
0.198912367379684
 10
16.1965513816498
 20
20.9909651961379
 10
16.1208154503617
 20
20.9152292648498
 42
-0.414213562373094
 10
15.6965513816498
 20
20.9152292648498
 10
15.6208154503617
 20
20.9909651961379
 42
0.198912367379663
 10
15.4086834160057
 20
21.0788331617819
 42
0.198912367379684
 10
15.1965513816498
 20
20.9909651961379
 10
15.1208154503617
 20
20.9152292648498
 42
-0.414213562373094
 10
14.6965513816498
 20
20.9152292648498
 10
14.6208154503617
 20
20.9909651961379
 42
0.198912367379663
 10
14.4086834160057
 20
21.0788331617819
 42
0.198912367379684
 10
14.1965513816498
 20
20.9909651961379
 10
14.1208154503617
 20
20.9152292648498
 42
-0.414213562373094
 10
13.6965513816498
 20
20.9152292648498
 10
13.6208154503617
 20
20.9909651961379
 42
0.198912367379663
 10
13.4086834160057
 20
21.0788331617819
 42
0.198912367379684
 10
13.1965513816498
 20
20.9909651961379
 10
13.1208154503617
 20
20.9152292648498
 42
-0.414213562373094
 10
12.6965513816498
 20
20.9152292648498
 10
12.6208154503617
 20
20.9909651961379
 42
0.198912367379663
 10
12.4086834160057
 20
21.0788331617819
 42
0.198912367379684
 10
12.1965513816498
 20
20.9909651961379
 10
12.1208154503617
 20
20.9152292648498
 42
-0.414213562373101
 10
11.6965513816498
 20
20.9152292648498
 10
11.6208154503617
 20
20.9909651961379
 42
0.198912367379697
 10
11.4086834160057
 20
21.0788331617819
 42
0.198912367379689
 10
11.1965513816498
 20
20.9909651961379
 10
11.1208154503617
 20
20.9152292648498
 42
-0.414213562373101
 10
10.6965513816498
 20
20.9152292648498
 10
10.6208154503617
 20
20.9909651961379
 42
0.198912367379697
 10
10.4086834160057
 20
21.0788331617819
 42
0.198912367379689
 10
10.1965513816498
 20
20.9909651961379
 10
10.1208154503617
 20
20.9152292648498
 42
-0.414213562373101
 10
9.69655138164976
 20
20.9152292648498
 10
9.62081545036169
 20
20.9909651961379
 42
0.198912367379697
 10
9.40868341600573
 20
21.0788331617819
 42
0.198912367379689
 10
9.19655138164976
 20
20.9909651961379
 10
9.12081545036169
 20
20.9152292648498
 42
-0.414213562373101
 10
8.69655138164976
 20
20.9152292648498
 10
8.62081545036169
 20
20.9909651961379
 42
0.198912367379697
 10
8.40868341600573
 20
21.0788331617819
 42
0.198912367379689
 10
8.19655138164976
 20
20.9909651961379
 10
8.12081545036169
 20
20.9152292648498
 42
-0.414213562373101
 10
7.69655138164976
 20
20.9152292648498
 10
7.62081545036169
 20
20.9909651961379
 42
0.198912367379697
 10
7.40868341600573
 20
21.0788331617819
 42
0.198912367379689
 10
7.19655138164976
 20
20.9909651961379
 10
7.12081545036169
 20
20.9152292648498
 42
-0.414213562373101
 10
6.69655138164976
 20
20.9152292648498
 10
6.62081545036169
 20
20.9909651961379
 42
0.198912367379697
 10
6.40868341600573
 20
21.0788331617819
 42
0.198912367379689
 10
6.19655138164976
 20
20.9909651961379
 10
6.12081545036169
 20
20.9152292648498
 42
-0.414213562373101
 10
5.69655138164976
 20
20.9152292648498
 10
5.62081545036169
 20
20.9909651961379
 42
0.198912367379697
 10
5.40868341600573
 20
21.0788331617819
 42
0.198912367379689
 10
5.19655138164976
 20
20.9909651961379
 10
5.12081545036169
 20
20.9152292648498
 42
-0.414213562373101
 10
4.69655138164976
 20
20.9152292648498
 10
4.62081545036169
 20
20.9909651961379
 42
0.198912367379697
 10
4.40868341600573
 20
21.0788331617819
 42
0.198912367379689
 10
4.19655138164976
 20
20.9909651961379
 10
4.12081545036169
 20
20.9152292648498
 42
-0.414213562373101
 10
3.69655138164976
 20
20.9152292648498
 10
3.62081545036169
 20
20.9909651961379
 42
0.198912367379698
 10
3.40868341600573
 20
21.0788331617819
 42
0.198912367379691
 10
3.19655138164976
 20
20.9909651961379
 10
3.12081545036169
 20
20.9152292648498
 42
-0.414213562373101
 10
2.69655138164976
 20
20.9152292648498
 10
2.62081545036169
 20
20.9909651961379
 42
0.198912367379698
 10
2.40868341600573
 20
21.0788331617819
 42
0.198912367379691
 10
2.19655138164976
 20
20.9909651961379
 10
2.12081545036169
 20
20.9152292648498
 42
-0.414213562373101
 10
1.69655138164976
 20
20.9152292648498
 10
1.62081545036169
 20
20.9909651961379
 42
0.198912367379698
 10
1.40868341600573
 20
21.0788331617819
 42
0.198912367379691
 10
1.19655138164976
 20
20.9909651961379
 10
1.12081545036169
 20
20.9152292648498
 42
-0.414213562373101
 10
0.696551381649762
 20
20.9152292648498
 10
0.62081545036169
 20
20.9909651961379
 42
0.198912367379698
 10
0.408683416005729
 20
21.0788331617819
 42
0.198912367379691
 10
0.196551381649762
 20
20.9909651961379
 10
0.12081545036169
 20
20.9152292648498
 42
-0.414213562373101
 10
-0.303448618350238
 20
20.9152292648498
 10
-0.37918454963831
 20
20.9909651961379
 42
0.198912367379698
 10
-0.591316583994271
 20
21.0788331617819
 42
0.198912367379691
 10
-0.803448618350238
 20
20.9909651961379
 10
-0.87918454963831
 20
20.9152292648498
 42
-0.414213562373101
 10
-1.30344861835024
 20
20.9152292648498
 10
-1.37918454963831
 20
20.9909651961379
 42
0.198912367379698
 10
-1.59131658399427
 20
21.0788331617819
 42
0.198912367379691
 10
-1.80344861835024
 20
20.9909651961379
 10
-1.87918454963831
 20
20.9152292648498
 42
-0.414213562373101
 10
-2.30344861835024
 20
20.9152292648498
 10
-2.37918454963831
 20
20.9909651961379
 42
0.198912367379698
 10
-2.59131658399427
 20
21.0788331617819
 42
0.198912367379691
 10
-2.80344861835024
 20
20.9909651961379
 10
-2.87918454963831
 20
20.9152292648498
 42
-0.414213562373101
 10
-3.30344861835024
 20
20.9152292648498
 10
-3.37918454963831
 20
20.9909651961379
 42
0.198912367379698
 10
-3.59131658399427
 20
21.0788331617819
 42
0.198912367379691
 10
-3.80344861835024
 20
20.9909651961379
 10
-3.87918454963831
 20
20.9152292648498
 42
-0.414213562373101
 10
-4.30344861835024
 20
20.9152292648498
 10
-4.37918454963831
 20
20.9909651961379
 42
0.198912367379697
 10
-4.59131658399427
 20
21.0788331617819
 42
0.198912367379689
 10
-4.80344861835024
 20
20.9909651961379
 10
-4.87918454963831
 20
20.9152292648498
 42
-0.414213562373101
 10
-5.30344861835024
 20
20.9152292648498
 10
-5.37918454963831
 20
20.9909651961379
 42
0.198912367379697
 10
-5.59131658399427
 20
21.0788331617819
 42
0.198912367379689
 10
-5.80344861835024
 20
20.9909651961379
 10
-5.87918454963831
 20
20.9152292648498
 42
-0.414213562373101
 10
-6.30344861835024
 20
20.9152292648498
 10
-6.37918454963831
 20
20.9909651961379
 42
0.198912367379697
 10
-6.59131658399427
 20
21.0788331617819
 42
0.198912367379689
 10
-6.80344861835024
 20
20.9909651961379
 10
-6.87918454963831
 20
20.9152292648498
 42
-0.414213562373101
 10
-7.30344861835024
 20
20.9152292648498
 10
-7.37918454963831
 20
20.9909651961379
 42
0.198912367379694
 10
-7.59131658399427
 20
21.0788331617819
 42
0.198912367379692
 10
-7.80344861835024
 20
20.9909651961379
 10
-7.87918454963831
 20
20.9152292648498
 42
-0.414213562373101
 10
-8.30344861835024
 20
20.9152292648498
 10
-8.37918454963831
 20
20.9909651961379
 42
0.198912367379694
 10
-8.59131658399427
 20
21.0788331617819
 42
0.198912367379692
 10
-8.80344861835024
 20
20.9909651961379
 10
-8.87918454963831
 20
20.9152292648498
 42
-0.414213562373101
 10
-9.30344861835024
 20
20.9152292648498
 10
-9.37918454963831
 20
20.9909651961379
 42
0.198912367379694
 10
-9.59131658399427
 20
21.0788331617819
 42
0.198912367379692
 10
-9.80344861835024
 20
20.9909651961379
 10
-9.87918454963831
 20
20.9152292648498
 42
-0.414213562373101
 10
-10.3034486183502
 20
20.9152292648498
 10
-10.3791845496383
 20
20.9909651961379
 42
0.198912367379694
 10
-10.5913165839943
 20
21.0788331617819
 42
0.198912367379692
 10
-10.8034486183502
 20
20.9909651961379
 10
-10.8791845496383
 20
20.9152292648498
 42
-0.414213562373101
 10
-11.3034486183502
 20
20.9152292648498
 10
-11.3791845496383
 20
20.9909651961379
 42
0.198912367379694
 10
-11.5913165839943
 20
21.0788331617819
 42
0.198912367379692
 10
-11.8034486183502
 20
20.9909651961379
 10
-11.8791845496383
 20
20.9152292648498
 42
-0.414213562373101
 10
-12.3034486183502
 20
20.9152292648498
 10
-12.3791845496383
 20
20.9909651961379
 42
0.198912367379694
 10
-12.5913165839943
 20
21.0788331617819
 42
0.198912367379692
 10
-12.8034486183502
 20
20.9909651961379
 10
-12.8791845496383
 20
20.9152292648498
 42
-0.414213562373101
 10
-13.3034486183502
 20
20.9152292648498
 10
-13.3791845496383
 20
20.9909651961379
 42
0.198912367379694
 10
-13.5913165839943
 20
21.0788331617819
 42
0.198912367379692
 10
-13.8034486183502
 20
20.9909651961379
 10
-14.0034486183502
 20
20.7909651961379
 42
0.19891236737966
 10
-14.0913165839943
 20
20.5788331617819
 10
-14.0913165839943
 20
17.0030972304938
 42
-0.414213562373099
 10
-14.3913165839943
 20
16.7030972304938
 10
-16.241469061295
 20
16.7030972304938
 42
0.459804496854007
 10
-16.5379593804628
 20
16.3573425516099
 10
-11.754797371749
 20
-14.6375472648558
 42
0.999999999999998
 10
-9.28404471201721
 20
-14.2562582741565
 10
-13.4039177865931
 20
12.4405192490951
 42
-0.459804496854026
 10
-8.4624124671296
 20
18.2030972304938
 10
7.60868341600573
 20
18.2030972304938
 42
-0.414213562373095
 10
10.1086834160057
 20
15.7030972304938
 10
10.1086834160057
 20
3.20309723049382
 42
0.414213562373099
 10
11.1086834160057
 20
2.20309723049382
 10
12.3086834160057
 20
2.20309723049382
 42
-0.4142135623731
 10
12.6086834160057
 20
1.90309723049382
 10
12.6086834160057
 20
-14.4469027695062
 42
1.0
 10
15.1086834160057
 20
-14.4469027695062
 10
15.1086834160057
 20
4.40309723049382
 42
0.414213562373099
 10
14.8086834160057
 20
4.70309723049382
 10
12.9086834160057
 20
4.70309723049382
 42
-0.414213562373087
 10
12.6086834160057
 20
5.00309723049383
 10
12.6086834160057
 20
15.7030972304938
 42
-0.414213562373095
 10
15.1086834160057
 20
18.2030972304938
 10
68.1086834160057
 20
18.2030972304938
 42
0.414213562373121
 10
68.4086834160057
 20
18.5030972304938
 10
68.4086834160057
 20
20.4030972304938
 42
0.414213562373127
 10
68.1086834160057
 20
20.7030972304938
 10
68.0329474847177
 20
20.7030972304938
 42
-0.198912367379714
 10
67.8208154503617
 20
20.7909651961379
 10
67.6208154503617
 20
20.9909651961379
 42
0.198912367379734
 10
67.4086834160057
 20
21.0788331617819
 42
0.198912367379686
 10
67.1965513816498
 20
20.9909651961379
 10
67.1208154503617
 20
20.9152292648498
 42
-0.414213562373108
 10
66.6965513816498
 20
20.9152292648498
 10
66.6208154503617
 20
20.9909651961379
 42
0.198912367379734
 10
66.4086834160057
 20
21.0788331617819
 42
0.198912367379686
 10
66.1965513816498
 20
20.9909651961379
 10
66.1208154503617
 20
20.9152292648498
 42
-0.414213562373108
 10
65.6965513816498
 20
20.9152292648498
 10
65.6208154503617
 20
20.9909651961379
 42
0.198912367379734
 10
65.4086834160057
 20
21.0788331617819
 42
0.198912367379686
 10
65.1965513816498
 20
20.9909651961379
 10
65.1208154503617
 20
20.9152292648498
 42
-0.414213562373108
 10
64.6965513816498
 20
20.9152292648498
 10
64.6208154503617
 20
20.9909651961379
 42
0.198912367379734
 10
64.4086834160057
 20
21.0788331617819
 42
0.198912367379686
 10
64.1965513816498
 20
20.9909651961379
 10
64.1208154503617
 20
20.9152292648498
 42
-0.414213562373108
 10
63.6965513816498
 20
20.9152292648498
 10
63.6208154503617
 20
20.9909651961379
 42
0.198912367379765
 10
63.4086834160057
 20
21.0788331617819
 42
0.198912367379651
 10
63.1965513816498
 20
20.9909651961379
 10
63.1208154503617
 20
20.9152292648498
 42
-0.414213562373108
 10
62.6965513816498
 20
20.9152292648498
 10
62.6208154503617
 20
20.9909651961379
 42
0.198912367379765
 10
62.4086834160057
 20
21.0788331617819
 42
0.198912367379651
 10
62.1965513816498
 20
20.9909651961379
 10
62.1208154503617
 20
20.9152292648498
 42
-0.414213562373108
 10
61.6965513816498
 20
20.9152292648498
 10
61.6208154503617
 20
20.9909651961379
 42
0.198912367379765
 10
61.4086834160057
 20
21.0788331617819
 42
0.198912367379651
 10
61.1965513816498
 20
20.9909651961379
 10
61.1208154503617
 20
20.9152292648498
 42
-0.414213562373108
 10
60.6965513816498
 20
20.9152292648498
 10
60.6208154503617
 20
20.9909651961379
 42
0.198912367379765
 10
60.4086834160057
 20
21.0788331617819
 42
0.198912367379651
 10
60.1965513816498
 20
20.9909651961379
 10
60.1208154503617
 20
20.9152292648498
 42
-0.414213562373108
 10
59.6965513816498
 20
20.9152292648498
 10
59.6208154503617
 20
20.9909651961379
 42
0.198912367379765
 10
59.4086834160057
 20
21.0788331617819
 42
0.198912367379651
 10
59.1965513816498
 20
20.9909651961379
 10
59.1208154503617
 20
20.9152292648498
 42
-0.414213562373108
 10
58.6965513816498
 20
20.9152292648498
 10
58.6208154503617
 20
20.9909651961379
 42
0.198912367379765
 10
58.4086834160057
 20
21.0788331617819
 42
0.198912367379651
 10
58.1965513816498
 20
20.9909651961379
 10
58.1208154503617
 20
20.9152292648498
 42
-0.414213562373108
 10
57.6965513816498
 20
20.9152292648498
 10
57.6208154503617
 20
20.9909651961379
 42
0.198912367379765
 10
57.4086834160057
 20
21.0788331617819
 42
0.198912367379651
 10
57.1965513816498
 20
20.9909651961379
 10
57.1208154503617
 20
20.9152292648498
 42
-0.414213562373108
 10
56.6965513816498
 20
20.9152292648498
 10
56.6208154503617
 20
20.9909651961379
 42
0.198912367379765
 10
56.4086834160057
 20
21.0788331617819
 42
0.198912367379651
 10
56.1965513816498
 20
20.9909651961379
 10
56.1208154503617
 20
20.9152292648498
 42
-0.414213562373108
 10
55.6965513816498
 20
20.9152292648498
 10
55.6208154503617
 20
20.9909651961379
 42
0.198912367379765
 10
55.4086834160057
 20
21.0788331617819
 42
0.198912367379651
 10
55.1965513816498
 20
20.9909651961379
 10
55.1208154503617
 20
20.9152292648498
 42
-0.414213562373108
 10
54.6965513816498
 20
20.9152292648498
 10
54.6208154503617
 20
20.9909651961379
 42
0.198912367379765
 10
54.4086834160057
 20
21.0788331617819
 42
0.198912367379651
 10
54.1965513816498
 20
20.9909651961379
 10
54.1208154503617
 20
20.9152292648498
 42
-0.414213562373108
 10
53.6965513816498
 20
20.9152292648498
 10
53.6208154503617
 20
20.9909651961379
 42
0.198912367379765
 10
53.4086834160057
 20
21.0788331617819
 42
0.198912367379651
 10
53.1965513816498
 20
20.9909651961379
 10
53.1208154503617
 20
20.9152292648498
 42
-0.414213562373108
 10
52.6965513816498
 20
20.9152292648498
 10
52.6208154503617
 20
20.9909651961379
 42
0.198912367379765
 10
52.4086834160057
 20
21.0788331617819
 42
0.198912367379651
 10
52.1965513816498
 20
20.9909651961379
 10
52.1208154503617
 20
20.9152292648498
 42
-0.414213562373108
 10
51.6965513816498
 20
20.9152292648498
 10
51.6208154503617
 20
20.9909651961379
 42
0.198912367379765
 10
51.4086834160057
 20
21.0788331617819
 42
0.198912367379651
 10
51.1965513816498
 20
20.9909651961379
 10
51.1208154503617
 20
20.9152292648498
 42
-0.414213562373108
 10
50.6965513816498
 20
20.9152292648498
 10
50.6208154503617
 20
20.9909651961379
 42
0.198912367379765
 10
50.4086834160057
 20
21.0788331617819
 42
0.198912367379651
 10
50.1965513816498
 20
20.9909651961379
 10
50.1208154503617
 20
20.9152292648498
 42
-0.414213562373108
 10
49.6965513816498
 20
20.9152292648498
 10
49.6208154503617
 20
20.9909651961379
 42
0.198912367379722
 10
49.4086834160057
 20
21.0788331617819
 42
0.198912367379651
 10
49.1965513816498
 20
20.9909651961379
 10
49.1208154503617
 20
20.9152292648498
 42
-0.414213562373094
 10
48.6965513816498
 20
20.9152292648498
 10
48.6208154503617
 20
20.9909651961379
 42
0.198912367379722
 10
48.4086834160057
 20
21.0788331617819
 42
0.198912367379651
 10
48.1965513816498
 20
20.9909651961379
 10
48.1208154503617
 20
20.9152292648498
 42
-0.414213562373094
 10
47.6965513816498
 20
20.9152292648498
 10
47.6208154503617
 20
20.9909651961379
 42
0.198912367379722
 10
47.4086834160057
 20
21.0788331617819
 42
0.198912367379651
 10
47.1965513816498
 20
20.9909651961379
 10
47.1208154503617
 20
20.9152292648498
 42
-0.414213562373094
 10
46.6965513816498
 20
20.9152292648498
 10
46.6208154503617
 20
20.9909651961379
 42
0.198912367379722
 10
46.4086834160057
 20
21.0788331617819
 42
0.198912367379651
 10
46.1965513816498
 20
20.9909651961379
 10
46.1208154503617
 20
20.9152292648498
 42
-0.414213562373094
 10
45.6965513816498
 20
20.9152292648498
 10
45.6208154503617
 20
20.9909651961379
 42
0.198912367379722
 10
45.4086834160057
 20
21.0788331617819
 42
0.198912367379651
 10
45.1965513816498
 20
20.9909651961379
 10
45.1208154503617
 20
20.9152292648498
 42
-0.414213562373094
 10
44.6965513816498
 20
20.9152292648498
 10
44.6208154503617
 20
20.9909651961379
 42
0.198912367379722
 10
44.4086834160057
 20
21.0788331617819
 42
0.198912367379651
 10
44.1965513816498
 20
20.9909651961379
 10
44.1208154503617
 20
20.9152292648498
 42
-0.414213562373094
 10
43.6965513816498
 20
20.9152292648498
 10
43.6208154503617
 20
20.9909651961379
 42
0.198912367379703
 10
43.4086834160057
 20
21.0788331617819
 42
0.198912367379701
 10
43.1965513816498
 20
20.9909651961379
  0
LWPOLYLINE
  5
27
100
AcDbEntity
  8
1
  6
CONTINUOUS
100
AcDbPolyline
 90
      320
 70
     1
 43
0.0
 10
79.9086834160057
 20
25.2032471711618
 42
-0.414213562373097
 10
78.9086834160057
 20
24.2032471711618
 10
60.7086834160057
 20
24.2032471711618
 42
0.414213562373082
 10
60.4086834160057
 20
23.9032471711618
 10
60.4086834160057
 20
21.3275112398737
 42
-0.198912367379624
 10
60.3208154503617
 20
21.1153792055177
 10
60.1208154503617
 20
20.9153792055177
 42
-0.198912367379661
 10
59.9086834160057
 20
20.8275112398737
 42
-0.19891236737968
 10
59.6965513816498
 20
20.9153792055177
 10
59.6208154503617
 20
20.9911151368058
 42
0.414213562373108
 10
59.1965513816498
 20
20.9911151368058
 10
59.1208154503617
 20
20.9153792055177
 42
-0.198912367379661
 10
58.9086834160057
 20
20.8275112398737
 42
-0.19891236737968
 10
58.6965513816498
 20
20.9153792055177
 10
58.6208154503617
 20
20.9911151368058
 42
0.414213562373108
 10
58.1965513816498
 20
20.9911151368058
 10
58.1208154503617
 20
20.9153792055177
 42
-0.198912367379661
 10
57.9086834160057
 20
20.8275112398737
 42
-0.19891236737968
 10
57.6965513816498
 20
20.9153792055177
 10
57.6208154503617
 20
20.9911151368058
 42
0.414213562373108
 10
57.1965513816498
 20
20.9911151368058
 10
57.1208154503617
 20
20.9153792055177
 42
-0.198912367379661
 10
56.9086834160057
 20
20.8275112398737
 42
-0.19891236737968
 10
56.6965513816498
 20
20.9153792055177
 10
56.6208154503617
 20
20.9911151368058
 42
0.414213562373108
 10
56.1965513816498
 20
20.9911151368058
 10
56.1208154503617
 20
20.9153792055177
 42
-0.198912367379661
 10
55.9086834160057
 20
20.8275112398737
 42
-0.19891236737968
 10
55.6965513816498
 20
20.9153792055177
 10
55.6208154503617
 20
20.9911151368058
 42
0.414213562373108
 10
55.1965513816498
 20
20.9911151368058
 10
55.1208154503617
 20
20.9153792055177
 42
-0.198912367379661
 10
54.9086834160057
 20
20.8275112398737
 42
-0.19891236737968
 10
54.6965513816498
 20
20.9153792055177
 10
54.6208154503617
 20
20.9911151368058
 42
0.414213562373108
 10
54.1965513816498
 20
20.9911151368058
 10
54.1208154503617
 20
20.9153792055177
 42
-0.198912367379661
 10
53.9086834160057
 20
20.8275112398737
 42
-0.19891236737968
 10
53.6965513816498
 20
20.9153792055177
 10
53.6208154503617
 20
20.9911151368058
 42
0.414213562373108
 10
53.1965513816498
 20
20.9911151368058
 10
53.1208154503617
 20
20.9153792055177
 42
-0.198912367379661
 10
52.9086834160057
 20
20.8275112398737
 42
-0.19891236737968
 10
52.6965513816498
 20
20.9153792055177
 10
52.6208154503617
 20
20.9911151368058
 42
0.414213562373108
 10
52.1965513816498
 20
20.9911151368058
 10
52.1208154503617
 20
20.9153792055177
 42
-0.198912367379661
 10
51.9086834160057
 20
20.8275112398737
 42
-0.19891236737968
 10
51.6965513816498
 20
20.9153792055177
 10
51.6208154503617
 20
20.9911151368058
 42
0.414213562373108
 10
51.1965513816498
 20
20.9911151368058
 10
51.1208154503617
 20
20.9153792055177
 42
-0.198912367379661
 10
50.9086834160057
 20
20.8275112398737
 42
-0.19891236737968
 10
50.6965513816498
 20
20.9153792055177
 10
50.6208154503617
 20
20.9911151368058
 42
0.414213562373108
 10
50.1965513816498
 20
20.9911151368058
 10
50.1208154503617
 20
20.9153792055177
 42
-0.198912367379661
 10
49.9086834160057
 20
20.8275112398737
 42
-0.19891236737968
 10
49.6965513816498
 20
20.9153792055177
 10
49.6208154503617
 20
20.9911151368058
 42
0.414213562373108
 10
49.1965513816498
 20
20.9911151368058
 10
49.1208154503617
 20
20.9153792055177
 42
-0.198912367379661
 10
48.9086834160057
 20
20.8275112398737
 42
-0.19891236737968
 10
48.6965513816498
 20
20.9153792055177
 10
48.6208154503617
 20
20.9911151368058
 42
0.414213562373108
 10
48.1965513816498
 20
20.9911151368058
 10
48.1208154503617
 20
20.9153792055177
 42
-0.198912367379661
 10
47.9086834160057
 20
20.8275112398737
 42
-0.19891236737968
 10
47.6965513816498
 20
20.9153792055177
 10
47.6208154503617
 20
20.9911151368058
 42
0.414213562373108
 10
47.1965513816498
 20
20.9911151368058
 10
47.1208154503617
 20
20.9153792055177
 42
-0.198912367379661
 10
46.9086834160057
 20
20.8275112398737
 42
-0.19891236737968
 10
46.6965513816498
 20
20.9153792055177
 10
46.6208154503617
 20
20.9911151368058
 42
0.414213562373108
 10
46.1965513816498
 20
20.9911151368058
 10
46.1208154503617
 20
20.9153792055177
 42
-0.198912367379661
 10
45.9086834160057
 20
20.8275112398737
 42
-0.19891236737968
 10
45.6965513816498
 20
20.9153792055177
 10
45.6208154503617
 20
20.9911151368058
 42
0.414213562373108
 10
45.1965513816498
 20
20.9911151368058
 10
45.1208154503617
 20
20.9153792055177
 42
-0.198912367379661
 10
44.9086834160057
 20
20.8275112398737
 42
-0.19891236737968
 10
44.6965513816498
 20
20.9153792055177
 10
44.6208154503617
 20
20.9911151368058
 42
0.414213562373108
 10
44.1965513816498
 20
20.9911151368058
 10
44.1208154503617
 20
20.9153792055177
 42
-0.198912367379661
 10
43.9086834160057
 20
20.8275112398737
 42
-0.19891236737968
 10
43.6965513816498
 20
20.9153792055177
 10
43.6208154503617
 20
20.9911151368058
 42
0.414213562373108
 10
43.1965513816498
 20
20.9911151368058
 10
43.1208154503617
 20
20.9153792055177
 42
-0.198912367379661
 10
42.9086834160057
 20
20.8275112398737
 42
-0.19891236737968
 10
42.6965513816498
 20
20.9153792055177
 10
42.6208154503617
 20
20.9911151368058
 42
0.414213562373108
 10
42.1965513816498
 20
20.9911151368058
 10
42.1208154503617
 20
20.9153792055177
 42
-0.198912367379661
 10
41.9086834160057
 20
20.8275112398737
 42
-0.19891236737968
 10
41.6965513816498
 20
20.9153792055177
 10
41.6208154503617
 20
20.9911151368058
 42
0.414213562373108
 10
41.1965513816498
 20
20.9911151368058
 10
41.1208154503617
 20
20.9153792055177
 42
-0.198912367379661
 10
40.9086834160057
 20
20.8275112398737
 42
-0.19891236737968
 10
40.6965513816498
 20
20.9153792055177
 10
40.6208154503617
 20
20.9911151368058
 42
0.414213562373108
 10
40.1965513816498
 20
20.9911151368058
 10
40.1208154503617
 20
20.9153792055177
 42
-0.198912367379661
 10
39.9086834160057
 20
20.8275112398737
 42
-0.19891236737968
 10
39.6965513816498
 20
20.9153792055177
 10
39.6208154503617
 20
20.9911151368058
 42
0.414213562373108
 10
39.1965513816498
 20
20.9911151368058
 10
39.1208154503617
 20
20.9153792055177
 42
-0.198912367379661
 10
38.9086834160057
 20
20.8275112398737
 42
-0.19891236737968
 10
38.6965513816498
 20
20.9153792055177
 10
38.6208154503617
 20
20.9911151368058
 42
0.414213562373108
 10
38.1965513816498
 20
20.9911151368058
 10
38.1208154503617
 20
20.9153792055177
 42
-0.198912367379661
 10
37.9086834160057
 20
20.8275112398737
 42
-0.19891236737968
 10
37.6965513816498
 20
20.9153792055177
 10
37.6208154503617
 20
20.9911151368058
 42
0.414213562373108
 10
37.1965513816498
 20
20.9911151368058
 10
37.1208154503617
 20
20.9153792055177
 42
-0.198912367379661
 10
36.9086834160057
 20
20.8275112398737
 42
-0.19891236737968
 10
36.6965513816498
 20
20.9153792055177
 10
36.6208154503617
 20
20.9911151368058
 42
0.414213562373108
 10
36.1965513816498
 20
20.9911151368058
 10
36.1208154503617
 20
20.9153792055177
 42
-0.198912367379661
 10
35.9086834160057
 20
20.8275112398737
 42
-0.19891236737968
 10
35.6965513816498
 20
20.9153792055177
 10
35.6208154503617
 20
20.9911151368058
 42
0.414213562373108
 10
35.1965513816498
 20
20.9911151368058
 10
35.1208154503617
 20
20.9153792055177
 42
-0.198912367379661
 10
34.9086834160057
 20
20.8275112398737
 42
-0.19891236737968
 10
34.6965513816498
 20
20.9153792055177
 10
34.6208154503617
 20
20.9911151368058
 42
0.414213562373108
 10
34.1965513816498
 20
20.9911151368058
 10
34.1208154503617
 20
20.9153792055177
 42
-0.198912367379661
 10
33.9086834160057
 20
20.8275112398737
 42
-0.19891236737968
 10
33.6965513816498
 20
20.9153792055177
 10
33.6208154503617
 20
20.9911151368058
 42
0.414213562373108
 10
33.1965513816498
 20
20.9911151368058
 10
33.1208154503617
 20
20.9153792055177
 42
-0.198912367379661
 10
32.9086834160057
 20
20.8275112398737
 42
-0.19891236737968
 10
32.6965513816498
 20
20.9153792055177
 10
32.6208154503617
 20
20.9911151368058
 42
0.414213562373108
 10
32.1965513816498
 20
20.9911151368058
 10
32.1208154503617
 20
20.9153792055177
 42
-0.198912367379692
 10
31.9086834160057
 20
20.8275112398737
 42
-0.198912367379672
 10
31.6965513816498
 20
20.9153792055177
 10
31.6208154503617
 20
20.9911151368058
 42
0.414213562373108
 10
31.1965513816498
 20
20.9911151368058
 10
31.1208154503617
 20
20.9153792055177
 42
-0.198912367379698
 10
30.9086834160057
 20
20.8275112398737
 42
-0.198912367379672
 10
30.6965513816498
 20
20.9153792055177
 10
30.6208154503617
 20
20.9911151368058
 42
0.414213562373108
 10
30.1965513816498
 20
20.9911151368058
 10
30.1208154503617
 20
20.9153792055177
 42
-0.198912367379698
 10
29.9086834160057
 20
20.8275112398737
 42
-0.198912367379644
 10
29.6965513816498
 20
20.9153792055177
 10
29.6208154503617
 20
20.9911151368058
 42
0.414213562373094
 10
29.1965513816498
 20
20.9911151368058
 10
29.1208154503617
 20
20.9153792055177
 42
-0.198912367379698
 10
28.9086834160057
 20
20.8275112398737
 42
-0.198912367379644
 10
28.6965513816498
 20
20.9153792055177
 10
28.6208154503617
 20
20.9911151368058
 42
0.414213562373094
 10
28.1965513816498
 20
20.9911151368058
 10
28.1208154503617
 20
20.9153792055177
 42
-0.198912367379698
 10
27.9086834160057
 20
20.8275112398737
 42
-0.198912367379644
 10
27.6965513816498
 20
20.9153792055177
 10
27.6208154503617
 20
20.9911151368058
 42
0.414213562373108
 10
27.1965513816498
 20
20.9911151368058
 10
27.1208154503617
 20
20.9153792055177
 42
-0.198912367379698
 10
26.9086834160057
 20
20.8275112398737
 42
-0.198912367379672
 10
26.6965513816498
 20
20.9153792055177
 10
26.6208154503617
 20
20.9911151368058
 42
0.414213562373108
 10
26.1965513816498
 20
20.9911151368058
 10
26.1208154503617
 20
20.9153792055177
 42
-0.198912367379698
 10
25.9086834160057
 20
20.8275112398737
 42
-0.198912367379672
 10
25.6965513816498
 20
20.9153792055177
 10
25.6208154503617
 20
20.9911151368058
 42
0.414213562373108
 10
25.1965513816498
 20
20.9911151368058
 10
25.1208154503617
 20
20.9153792055177
 42
-0.198912367379698
 10
24.9086834160057
 20
20.8275112398737
 42
-0.198912367379672
 10
24.6965513816498
 20
20.9153792055177
 10
24.6208154503617
 20
20.9911151368058
 42
0.414213562373108
 10
24.1965513816498
 20
20.9911151368058
 10
24.1208154503617
 20
20.9153792055177
 42
-0.198912367379698
 10
23.9086834160057
 20
20.8275112398737
 42
-0.198912367379672
 10
23.6965513816498
 20
20.9153792055177
 10
23.6208154503617
 20
20.9911151368058
 42
0.414213562373108
 10
23.1965513816498
 20
20.9911151368058
 10
23.1208154503617
 20
20.9153792055177
 42
-0.198912367379698
 10
22.9086834160057
 20
20.8275112398737
 42
-0.198912367379672
 10
22.6965513816498
 20
20.9153792055177
 10
22.6208154503617
 20
20.9911151368058
 42
0.414213562373108
 10
22.1965513816498
 20
20.9911151368058
 10
22.1208154503617
 20
20.9153792055177
 42
-0.198912367379698
 10
21.9086834160057
 20
20.8275112398737
 42
-0.198912367379672
 10
21.6965513816498
 20
20.9153792055177
 10
21.6208154503617
 20
20.9911151368058
 42
0.414213562373108
 10
21.1965513816498
 20
20.9911151368058
 10
21.1208154503617
 20
20.9153792055177
 42
-0.198912367379698
 10
20.9086834160057
 20
20.8275112398737
 42
-0.198912367379672
 10
20.6965513816498
 20
20.9153792055177
 10
20.6208154503617
 20
20.9911151368058
 42
0.414213562373108
 10
20.1965513816498
 20
20.9911151368058
 10
20.1208154503617
 20
20.9153792055177
 42
-0.198912367379698
 10
19.9086834160057
 20
20.8275112398737
 42
-0.198912367379672
 10
19.6965513816498
 20
20.9153792055177
 10
19.6208154503617
 20
20.9911151368058
 42
0.414213562373108
 10
19.1965513816498
 20
20.9911151368058
 10
19.1208154503617
 20
20.9153792055177
 42
-0.198912367379698
 10
18.9086834160057
 20
20.8275112398737
 42
-0.198912367379672
 10
18.6965513816498
 20
20.9153792055177
 10
18.6208154503617
 20
20.9911151368058
 42
0.414213562373108
 10
18.1965513816498
 20
20.9911151368058
 10
18.1208154503617
 20
20.9153792055177
 42
-0.198912367379698
 10
17.9086834160057
 20
20.8275112398737
 42
-0.198912367379672
 10
17.6965513816498
 20
20.9153792055177
 10
17.6208154503617
 20
20.9911151368058
 42
0.414213562373108
 10
17.1965513816498
 20
20.9911151368058
 10
17.1208154503617
 20
20.9153792055177
 42
-0.198912367379698
 10
16.9086834160057
 20
20.8275112398737
 42
-0.198912367379672
 10
16.6965513816498
 20
20.9153792055177
 10
16.6208154503617
 20
20.9911151368058
 42
0.414213562373108
 10
16.1965513816498
 20
20.9911151368058
 10
16.1208154503617
 20
20.9153792055177
 42
-0.198912367379667
 10
15.9086834160057
 20
20.8275112398737
 42
-0.198912367379698
 10
15.6965513816498
 20
20.9153792055177
 10
15.6208154503617
 20
20.9911151368058
 42
0.414213562373108
 10
15.1965513816498
 20
20.9911151368058
 10
15.1208154503617
 20
20.9153792055177
 42
-0.198912367379667
 10
14.9086834160057
 20
20.8275112398737
 42
-0.198912367379698
 10
14.6965513816498
 20
20.9153792055177
 10
14.6208154503617
 20
20.9911151368058
 42
0.414213562373108
 10
14.1965513816498
 20
20.9911151368058
 10
14.1208154503617
 20
20.9153792055177
 42
-0.198912367379667
 10
13.9086834160057
 20
20.8275112398737
 42
-0.198912367379698
 10
13.6965513816498
 20
20.9153792055177
 10
13.6208154503617
 20
20.9911151368058
 42
0.414213562373108
 10
13.1965513816498
 20
20.9911151368058
 10
13.1208154503617
 20
20.9153792055177
 42
-0.198912367379667
 10
12.9086834160057
 20
20.8275112398737
 42
-0.198912367379698
 10
12.6965513816498
 20
20.9153792055177
 10
12.6208154503617
 20
20.9911151368058
 42
0.414213562373108
 10
12.1965513816498
 20
20.9911151368058
 10
12.1208154503617
 20
20.9153792055177
 42
-0.198912367379667
 10
11.9086834160057
 20
20.8275112398737
 42
-0.198912367379698
 10
11.6965513816498
 20
20.9153792055177
 10
11.6208154503617
 20
20.9911151368058
 42
0.414213562373108
 10
11.1965513816498
 20
20.9911151368058
 10
11.1208154503617
 20
20.9153792055177
 42
-0.198912367379667
 10
10.9086834160057
 20
20.8275112398737
 42
-0.198912367379698
 10
10.6965513816498
 20
20.9153792055177
 10
10.6208154503617
 20
20.9911151368058
 42
0.414213562373108
 10
10.1965513816498
 20
20.9911151368058
 10
10.1208154503617
 20
20.9153792055177
 42
-0.198912367379667
 10
9.90868341600573
 20
20.8275112398737
 42
-0.198912367379698
 10
9.69655138164977
 20
20.9153792055177
 10
9.49655138164974
 20
21.1153792055177
 42
0.198912367379644
 10
9.28441934729379
 20
21.2032471711618
 10
9.20868341600573
 20
21.2032471711618
 42
-0.414213562373082
 10
8.90868341600573
 20
21.5032471711618
 10
8.90868341600573
 20
30.7032471711618
 42
-0.414213562373095
 10
13.9086834160057
 20
35.7032471711618
 10
18.6086834160057
 20
35.7032471711618
 42
-0.414213562373113
 10
18.9086834160057
 20
35.4032471711618
 10
18.9086834160057
 20
34.945771908232
 42
-0.353653337539093
 10
18.671542142625
 20
34.6524311840087
 10
13.8848606941785
 20
33.6267137307702
 42
0.353653337539082
 10
11.9086834160057
 20
31.1822076955767
 10
11.9086834160057
 20
24.5032471711618
 42
0.414213562373106
 10
12.2086834160057
 20
24.2032471711618
 10
20.1086834160057
 20
24.2032471711618
 42
0.414213562373092
 10
20.4086834160057
 20
24.5032471711618
 10
20.4086834160057
 20
26.9032471711618
 42
-0.414213562373106
 10
20.7086834160057
 20
27.2032471711618
 10
22.1086834160057
 20
27.2032471711618
 42
-0.414213562373092
 10
22.4086834160057
 20
26.9032471711618
 10
22.4086834160057
 20
24.5032471711618
 42
0.414213562373106
 10
22.7086834160057
 20
24.2032471711618
 10
29.6086834160057
 20
24.2032471711618
 42
0.414213562373092
 10
29.9086834160057
 20
24.5032471711618
 10
29.9086834160057
 20
26.9032471711618
 42
-0.414213562373106
 10
30.2086834160057
 20
27.2032471711618
 10
31.6086834160057
 20
27.2032471711618
 42
-0.414213562373092
 10
31.9086834160057
 20
26.9032471711618
 10
31.9086834160057
 20
24.5032471711618
 42
0.414213562373106
 10
32.2086834160057
 20
24.2032471711618
 10
35.1086834160057
 20
24.2032471711618
 42
0.414213562373075
 10
35.4086834160057
 20
24.5032471711618
 10
35.4086834160057
 20
26.9032471711618
 42
-0.414213562373113
 10
35.7086834160057
 20
27.2032471711618
 10
37.1086834160057
 20
27.2032471711618
 42
-0.414213562373075
 10
37.4086834160057
 20
26.9032471711618
 10
37.4086834160057
 20
24.5032471711618
 42
0.414213562373113
 10
37.7086834160057
 20
24.2032471711618
 10
44.6086834160057
 20
24.2032471711618
 42
0.414213562373082
 10
44.9086834160057
 20
24.5032471711618
 10
44.9086834160057
 20
26.9032471711618
 42
-0.414213562373146
 10
45.2086834160057
 20
27.2032471711618
 10
47.1086834160057
 20
27.2032471711618
 42
-0.414213562373082
 10
47.4086834160057
 20
26.9032471711618
 10
47.4086834160057
 20
24.5032471711618
 42
0.414213562373146
 10
47.7086834160057
 20
24.2032471711618
 10
54.6086834160057
 20
24.2032471711618
 42
0.414213562373082
 10
54.9086834160057
 20
24.5032471711618
 10
54.9086834160057
 20
26.9032471711618
 42
-0.414213562373146
 10
55.2086834160057
 20
27.2032471711618
 10
76.6086834160057
 20
27.2032471711618
 42
0.414213562373061
 10
76.9086834160057
 20
27.5032471711618
 10
76.9086834160057
 20
41.9032471711618
 42
-0.414213562373054
 10
77.2086834160057
 20
42.2032471711618
 10
91.6086834160057
 20
42.2032471711618
 42
-0.414213562373138
 10
91.9086834160057
 20
41.9032471711618
 10
91.9086834160057
 20
39.5032471711618
 42
-0.414213562373116
 10
91.6086834160057
 20
39.2032471711618
 10
80.2086834160057
 20
39.2032471711618
 42
0.414213562373054
 10
79.9086834160057
 20
38.9032471711618
 10
79.9086834160057
 20
25.2032471711618
  0
LWPOLYLINE
  5
28
100
AcDbEntity
  8
1
  6
CONTINUOUS
100
AcDbPolyline
 90
       17
 70
     1
 43
0.0
 10
76.9086834160057
 20
42.5032471711618
 10
76.9086834160057
 20
90.9032471711618
 42
0.414213562373015
 10
76.6086834160057
 20
91.2032471711618
 10
74.6128149806434
 20
91.2032471711618
 42
0.308212412426259
 10
70.8906385702836
 20
88.6679665197611
 42
-0.82551641946757
 10
69.4637466115561
 20
88.9432471711618
 42
-0.371345245160256
 10
74.4086834160057
 20
93.2032471711618
 10
77.9086834160057
 20
93.2032471711618
 42
-0.414213562373106
 10
78.9086834160057
 20
92.2032471711618
 10
78.9086834160057
 20
46.7032471711618
 42
0.414213562373106
 10
80.9086834160057
 20
44.7032471711618
 10
90.9086834160057
 20
44.7032471711618
 42
-0.414213562373098
 10
91.9086834160057
 20
43.7032471711618
 10
91.9086834160057
 20
42.5032471711618
 42
-0.414213562373021
 10
91.6086834160057
 20
42.2032471711618
 10
77.2086834160057
 20
42.2032471711618
 42
-0.41421356237311
 10
76.9086834160057
 20
42.5032471711618
  0
INSERT
  5
2A
100
AcDbEntity
  8
1
  6
CONTINUOUS
100
AcDbBlockReference
  2
M4テックス13_0001
 10
15.9086834160057
 20
-1.09690276950618
 41
1.0
 42
1.0
 50
0.0
  0
LINE
  5
6D
100
AcDbEntity
  8
1
  6
CONTINUOUS
100
AcDbLine
 10
-29.0913165839943
 20
43.2032471711617
 11
-29.0913165839943
 21
119.372401905062
  0
INSERT
  5
6F
100
AcDbEntity
  8
1
  6
CONTINUOUS
100
AcDbBlockReference
  2
あ_0002
 10
68.7194941261143
 20
44.6735176562635
 41
1.0
 42
1.0
 50
0.0
  0
LINE
  5
77
100
AcDbEntity
  8
1
  6
CONTINUOUS
100
AcDbLine
 10
-19.0913165839943
 20
33.2032471711617
 11
60.9086834160057
 21
33.2032471711617
  0
LINE
  5
78
100
AcDbEntity
  8
1
  6
CONTINUOUS
100
AcDbLine
 10
-29.0913165839943
 20
43.2032471711617
 11
-19.0913165839943
 21
33.2032471711617
  0
LINE
  5
79
100
AcDbEntity
  8
1
  6
CONTINUOUS
100
AcDbLine
 10
70.9086834160057
 20
43.2032471711617
 11
70.9086834160057
 21
119.372401905062
  0
LINE
  5
7A
100
AcDbEntity
  8
1
  6
CONTINUOUS
100
AcDbLine
 10
70.9086834160057
 20
43.2032471711617
 11
60.9086834160057
 21
33.2032471711617
  0
LINE
  5
7B
100
AcDbEntity
  8
1
  6
CONTINUOUS
100
AcDbLine
 10
18.9086834160057
 20
-6.79690276950618
 11
138.991389736136
 21
-6.79690276950617
  0
LINE
  5
7C
100
AcDbEntity
  8
1
  6
CONTINUOUS
100
AcDbLine
 10
18.9086834160057
 20
-6.79690276950618
 11
18.9086834160057
 21
2.20309723049382
  0
LINE
  5
7D
100
AcDbEntity
  8
1
  6
CONTINUOUS
100
AcDbLine
 10
18.9086834160057
 20
2.20309723049382
 11
138.991389736136
 21
2.20309723049382
  0
LINE
  5
7E
100
AcDbEntity
  8
1
  6
CONTINUOUS
100
AcDbLine
 10
138.991389736136
 20
-3.79690276950618
 11
18.9086834160057
 21
-3.79690276950618
  0
LINE
  5
7F
100
AcDbEntity
  8
1
  6
CONTINUOUS
100
AcDbLine
 10
138.991389736136
 20
-0.796902769506175
 11
18.9086834160057
 21
-0.796902769506175
  0
LINE
  5
80
100
AcDbEntity
  8
1
  6
CONTINUOUS
100
AcDbLine
 10
-19.0913165839943
 20
17.976814629216
 11
-19.0913165839943
 21
33.2032471711617
  0
SPLINE
  5
81
100
AcDbEntity
  8
1
  6
CONTINUOUS
100
AcDbSpline
210
0.0
220
0.0
230
1.0
 70
     8
 71
     3
 72
     9
 73
     5
 74
     0
 42
1.00000000000000E-007
 43
1.00000000000000E-007
 40
0.0
 40
0.0
 40
0.0
 40
0.0
 40
16.8567989280843
 40
26.7498707574628
 40
26.7498707574628
 40
26.7498707574628
 40
26.7498707574628
 10
-29.0913165839943
 20
43.2032471711617
 30
0.0
 10
-28.5074206560778
 20
39.3832609155362
 30
0.0
 10
-26.1718369444123
 20
24.1033158930261
 30
0.0
 10
-28.4160723701623
 20
18.1705516149239
 30
0.0
 10
-28.9771312265998
 20
16.6873605453979
 30
0.0
  0
HATCH
  5
82
100
AcDbEntity
  8
1
  6
CONTINUOUS
100
AcDbHatch
 10
0.0
 20
0.0
 30
0.0
210
0.0
220
0.0
230
1.0
  2
_U
 70
     0
 71
     0
 91
        1
 92
        5
 93
       11
 72
     1
 10
-29.0913165839943
 20
43.2032471711617
 11
-19.0913165839943
 21
33.2032471711617
 72
     1
 10
-19.0913165839943
 20
33.2032471711617
 11
-19.0913165839943
 21
17.976814629216
 72
     1
 10
-19.0913165839943
 20
17.976814629216
 11
-28.9771312265999
 21
16.6873605453979
 72
     1
 10
-28.9771312265999
 20
16.6873605453979
 11
-27.8551492468818
 21
20.4768931050463
 72
     1
 10
-27.8551492468818
 20
20.4768931050463
 11
-27.3167917287662
 21
26.4401110791281
 72
     1
 10
-27.3167917287662
 20
26.4401110791281
 11
-27.5142009869349
 21
30.6665685331176
 72
     1
 10
-27.5142009869349
 20
30.6665685331176
 11
-27.8324274033477
 21
33.9845502725052
 72
     1
 10
-27.8324274033477
 20
33.9845502725052
 11
-28.1082472967423
 21
36.3053791403196
 72
     1
 10
-28.1082472967423
 20
36.3053791403196
 11
-28.3309205478165
 21
38.0020034521665
 72
     1
 10
-28.3309205478165
 20
38.0020034521665
 11
-29.0913165839943
 21
43.2032471711617
 72
     1
 10
-29.0913165839943
 20
43.2032471711617
 11
-29.0913165839943
 21
43.2032471711617
 97
        0
 75
     0
 76
     0
 52
45.0
 41
6.0
 77
     0
 78
     2
 53
45.0
 43
-39.0913162231445
 44
-19.6318817138672
 45
-4.24264068711928
 46
4.24264068711929
 79
     0
 53
135.0
 43
-39.0913162231445
 44
-19.6318817138672
 45
4.24264068711928
 46
4.24264068711928
 79
     0
 47
0.322189
 98
        1
 10
0.0
 20
0.0
  0
LINE
  5
83
100
AcDbEntity
  8
1
  6
CONTINUOUS
100
AcDbLine
 10
-29.0913165839943
 20
82.5562832526401
 11
7.72480206842715
 21
119.372401905062
  0
LINE
  5
84
100
AcDbEntity
  8
1
  6
CONTINUOUS
100
AcDbLine
 10
30.3116832905184
 20
33.2032471711617
 11
70.9086834160057
 21
73.8002472966491
  0
LINE
  5
85
100
AcDbEntity
  8
1
  6
CONTINUOUS
100
AcDbLine
 10
-29.0913165839943
 20
86.7989239397594
 11
5.60348172486751
 21
121.493722248621
  0
LINE
  5
86
100
AcDbEntity
  8
1
  6
CONTINUOUS
100
AcDbLine
 10
26.0690426033991
 20
33.2032471711617
 11
70.9086834160057
 21
78.0428879837684
  0
LINE
  5
87
100
AcDbEntity
  8
3
  6
CENTER
100
AcDbLine
 10
41.1586834160057
 20
11.9216411766378
 11
41.1586834160057
 21
27.604355671162
  0
LINE
  5
89
100
AcDbEntity
  8
1
  6
CONTINUOUS
100
AcDbLine
 10
42.9086834160057
 20
14.4407471711619
 11
42.9086834160057
 21
17.1532471711616
  0
LINE
  5
8A
100
AcDbEntity
  8
1
  6
CONTINUOUS
100
AcDbLine
 10
42.9086834160057
 20
18.2032471711618
 11
42.9086834160057
 21
26.3032471711617
  0
LINE
  5
8B
100
AcDbEntity
  8
1
  6
CONTINUOUS
100
AcDbLine
 10
39.4086834160057
 20
14.4407471711619
 11
39.4086834160057
 21
17.1532471711616
  0
LINE
  5
8C
100
AcDbEntity
  8
1
  6
CONTINUOUS
100
AcDbLine
 10
39.4086834160057
 20
18.2032471711618
 11
39.4086834160057
 21
26.3032471711617
  0
LINE
  5
8D
100
AcDbEntity
  8
1
  6
CONTINUOUS
100
AcDbLine
 10
38.3149334160057
 20
14.0032471711619
 11
44.0024334160057
 21
14.0032471711619
  0
LINE
  5
8E
100
AcDbEntity
  8
1
  6
DASHED
100
AcDbLine
 10
39.8461834160057
 20
12.2532471711619
 11
39.8461834160057
 21
14.0032471711619
  0
LINE
  5
8F
100
AcDbEntity
  8
1
  6
DASHED
100
AcDbLine
 10
42.4711834160057
 20
12.2532471711619
 11
42.4711834160057
 21
14.0032471711619
  0
LINE
  5
90
100
AcDbEntity
  8
1
  6
CONTINUOUS
100
AcDbLine
 10
39.4086834160057
 20
12.6907471711619
 11
42.9086834160057
 21
12.6907471711619
  0
LINE
  5
91
100
AcDbEntity
  8
1
  6
CONTINUOUS
100
AcDbLine
 10
37.6586834160057
 20
17.1532471711616
 11
44.6586834160057
 21
17.1532471711616
  0
LINE
  5
92
100
AcDbEntity
  8
1
  6
CONTINUOUS
100
AcDbLine
 10
38.1782986582762
 20
26.6032471711619
 11
44.1390681737353
 21
26.6032471711619
  0
LINE
  5
93
100
AcDbEntity
  8
1
  6
DASHED
100
AcDbLine
 10
39.1586834160057
 20
24.2032471711618
 11
39.1586834160057
 21
20.9532471711618
  0
LINE
  5
94
100
AcDbEntity
  8
1
  6
DASHED
100
AcDbLine
 10
39.8461834160057
 20
18.2032471711618
 11
39.8461834160057
 21
24.2032471711618
  0
LINE
  5
95
100
AcDbEntity
  8
1
  6
DASHED
100
AcDbLine
 10
42.4711834160057
 20
18.2032471711618
 11
42.4711834160057
 21
24.2032471711618
  0
LINE
  5
96
100
AcDbEntity
  8
1
  6
DASHED
100
AcDbLine
 10
43.1586834160057
 20
24.2032471711618
 11
43.1586834160057
 21
20.9616800003559
  0
LWPOLYLINE
  5
97
100
AcDbEntity
  8
1
  6
CONTINUOUS
100
AcDbPolyline
 90
        9
 70
     1
 43
0.0
 10
44.6586834160057
 20
24.2032471711618
 10
44.6586834160057
 20
26.3032471711617
 10
44.1390681737353
 20
26.6032471711619
 42
0.104706458112186
 10
42.9086834160057
 20
26.3032471711617
 42
0.171428571428675
 10
39.4086834160057
 20
26.3032471711617
 42
0.104706458112187
 10
38.1782986582762
 20
26.6032471711619
 10
37.6586834160057
 20
26.3032471711617
 10
37.6586834160057
 20
24.2032471711618
 10
44.6586834160057
 20
24.2032471711618
  0
LWPOLYLINE
  5
98
100
AcDbEntity
  8
1
  6
CONTINUOUS
100
AcDbPolyline
 90
        8
 70
     0
 43
0.0
 10
44.6586834160057
 20
17.6782471711617
 10
44.6586834160057
 20
14.3313721711619
 10
44.0024334160057
 20
14.0032471711619
 42
-0.185247789132767
 10
42.9086834160057
 20
14.4407471711619
 42
-0.25
 10
39.4086834160057
 20
14.4407471711619
 42
-0.185247789133304
 10
38.3149334160025
 20
14.0032471711619
 10
37.6586834160057
 20
14.3313721711619
 10
37.6586834160057
 20
17.6782471711617
  0
LWPOLYLINE
  5
99
100
AcDbEntity
  8
1
  6
CONTINUOUS
100
AcDbPolyline
 90
        6
 70
     0
 43
0.0
 10
39.4086834160057
 20
14.0032471711619
 10
39.4086834160057
 20
12.6907471711619
 10
39.8461834160057
 20
12.2532471711619
 10
42.4711834160057
 20
12.2532471711619
 10
42.9086834160057
 20
12.6907471711619
 10
42.9086834160057
 20
14.0032471711619
  0
LWPOLYLINE
  5
9A
100
AcDbEntity
  8
1
  6
CONTINUOUS
100
AcDbPolyline
 90
        5
 70
     1
 43
0.0
 10
36.5649334160057
 20
18.2032471711618
 10
45.7524334160057
 20
18.2032471711618
 10
45.7524334160057
 20
17.6782471711617
 10
36.5649334160057
 20
17.6782471711617
 10
36.5649334160057
 20
18.2032471711618
  0
DIMENSION
  5
AA
100
AcDbEntity
  8
3
  6
CONTINUOUS
100
AcDbDimension
  2
*D1
 10
94.6200786796776
 20
-19.7969027695062
 11
94.6200790405273
 21
-13.2969024181366
 70
    32
  3
ISO-25_0-333333
100
AcDbAlignedDimension
 13
69.9205638472839
 23
-6.79690276950617
 14
-36.8776519290253
 24
-19.7969027695062
 50
270.0
100
AcDbRotatedDimension
  0
DIMENSION
  5
BA
100
AcDbEntity
  8
3
  6
CONTINUOUS
100
AcDbDimension
  2
*D2
 10
60.8832707623121
 20
-16.7969027695062
 11
60.8832626342773
 21
-11.7969024181366
 70
    32
  3
ISO-25_0-333333
100
AcDbAlignedDimension
 13
52.2074694007392
 23
-6.79690276950617
 14
30.6086834160057
 24
-16.7969027695062
 50
270.0
100
AcDbRotatedDimension
  0
DIMENSION
  5
C8
100
AcDbEntity
  8
3
  6
CONTINUOUS
100
AcDbDimension
  2
*D3
 10
60.8832707623121
 20
-19.7969027695062
 11
60.8832626342773
 21
-26.3219032287598
 70
    32
  3
ISO-25_0-333333
100
AcDbAlignedDimension
 13
30.6086834160057
 23
-16.7969027695062
 14
51.6652318156409
 24
-19.7969027695062
 50
270.0
100
AcDbRotatedDimension
1001
ACAD
1000
DSTYLE
1002
{
1070
    75
1070
     1
1070
   280
1070
     2
1002
}
  0
DIMENSION
  5
D8
100
AcDbEntity
  8
3
  6
CONTINUOUS
100
AcDbDimension
  2
*D4
 10
-39.0913165839943
 20
-58.1757679474959
 11
-4.09131646156311
 21
-58.1757736206055
 70
    32
  3
ISO-25_0-333333
100
AcDbAlignedDimension
 13
30.9086834160057
 23
-16.3318810229579
 14
-39.0913165839943
 24
-19.3318810229579
 50
180.0
100
AcDbRotatedDimension
  0
DIMENSION
  5
E8
100
AcDbEntity
  8
3
  6
CONTINUOUS
100
AcDbDimension
  2
*D5
 10
-75.3749812873634
 20
18.2030972304938
 11
-75.3749771118164
 21
25.7031707763672
 70
    32
  3
ISO-25_0-333333
100
AcDbAlignedDimension
 13
-19.0913165839943
 23
33.2032471711617
 14
-16.0913165839943
 24
18.2030972304938
 50
270.0
100
AcDbRotatedDimension
  0
DIMENSION
  5
F8
100
AcDbEntity
  8
3
  6
CONTINUOUS
100
AcDbDimension
  2
*D6
 10
-75.3749819261579
 20
18.2030989880284
 11
-75.3749847412109
 21
-0.796900749206543
 70
    32
  3
ISO-25_0-333333
100
AcDbAlignedDimension
 13
-38.7913165839943
 23
-19.7969027695062
 14
-50.3499417646998
 24
18.2030989880284
 50
90.0
100
AcDbRotatedDimension
  0
DIMENSION
  5
108
100
AcDbEntity
  8
3
  6
CONTINUOUS
100
AcDbDimension
  2
*D7
 10
-58.2724419163172
 20
15.2030972304938
 11
-58.2724418640137
 21
-2.29690432548523
 70
    32
  3
ISO-25_0-333333
100
AcDbAlignedDimension
 13
-43.2913163932594
 23
-19.7969027703086
 14
-39.0913165839943
 24
15.2030972304938
 50
90.0
100
AcDbRotatedDimension
  0
DIMENSION
  5
11A
100
AcDbEntity
  8
3
  6
CONTINUOUS
100
AcDbDimension
  2
*D8
 10
-58.2724422248634
 20
18.2030989880284
 11
-58.2724418640137
 21
24.7280979156494
 70
    32
  3
ISO-25_0-333333
100
AcDbAlignedDimension
 13
-43.5913165839943
 23
15.2030989880284
 14
-42.3016876424218
 24
18.2030989880284
 50
90.0
100
AcDbRotatedDimension
1001
ACAD
1000
DSTYLE
1002
{
1070
   280
1070
     2
1002
}
  0
DIMENSION
  5
128
100
AcDbEntity
  8
3
  6
CONTINUOUS
100
AcDbDimension
  2
*D9
 10
-29.0913165839943
 20
105.211431385571
 11
20.9086837768555
 21
105.211433410645
 70
    32
  3
ISO-25_0-333333
100
AcDbAlignedDimension
 13
70.9086834160057
 23
108.984189933893
 14
-29.0913165839943
 24
104.133500371765
 50
180.0
100
AcDbRotatedDimension
1001
ACAD
1000
DSTYLE
1002
{
1070
    75
1070
     1
1070
    76
1070
     1
1002
}
  0
DIMENSION
  5
138
100
AcDbEntity
  8
3
  6
CONTINUOUS
100
AcDbDimension
  2
*D10
 10
-39.0913165839943
 20
66.4059148885456
 11
-48.400691986084
 21
66.4059219360352
 70
    32
  3
ISO-25_0-333333
100
AcDbAlignedDimension
 13
-29.0913165839943
 23
68.4270355394324
 14
-39.0913165839943
 24
14.9396864434136
 50
180.0
100
AcDbRotatedDimension
1001
ACAD
1000
DSTYLE
1002
{
1070
    75
1070
     1
1070
   280
1070
     2
1002
}
  0
DIMENSION
  5
147
100
AcDbEntity
  8
3
  6
CONTINUOUS
100
AcDbDimension
  2
*D11
 10
94.6200786796776
 20
33.2032471711617
 11
94.6200790405273
 21
13.2031710147858
 70
    32
  3
ISO-25_0-333333
100
AcDbAlignedDimension
 13
94.6200786796776
 23
-6.79690276950617
 14
60.9086834160057
 24
33.2032471711617
 50
90.0
100
AcDbRotatedDimension
1001
ACAD
1000
DSTYLE
1002
{
1070
    75
1070
     1
1002
}
  0
MTEXT
  5
148
100
AcDbEntity
  8
4
  6
CONTINUOUS
100
AcDbMText
 10
85.0930938720703
 20
92.1510238647461
 40
8.1
 41
0.0
 11
1.0
 21
0.0
 71
     7
 72
     5
  7
STANDARD
  1
{\T1.03125;\W0.666667;Ls-65X65X6}
  0
LINE
  5
14A
100
AcDbEntity
  8
4
  6
CONTINUOUS
100
AcDbLine
 10
73.7661361694336
 20
73.6302337646484
 11
83.5930938720703
 21
90.6510238647461
  0
LINE
  5
14B
100
AcDbEntity
  8
4
  6
CONTINUOUS
100
AcDbLine
 10
83.5930938720703
 20
90.6510238647461
 11
140.761840820313
 21
90.6510238647461
  0
INSERT
  5
14C
100
AcDbEntity
  8
4
  6
CONTINUOUS
100
AcDbBlockReference
  2
MARK1_1
 10
73.7661361694336
 20
73.6302337646484
 41
6.0
 42
6.0
 50
60.0
  0
MTEXT
  5
14E
100
AcDbEntity
  8
4
  6
CONTINUOUS
100
AcDbMText
 10
129.10525970459
 20
88.4289337158203
 40
8.1
 41
0.0
 11
1.0
 21
0.0
 71
     3
 72
     5
  7
BIGFONT
  1
{\T0.95;\W1.05263;別途工事}
  0
MTEXT
  5
14F
100
AcDbEntity
  8
4
  6
CONTINUOUS
100
AcDbMText
 10
129.673873901367
 20
-34.3185997009277
 40
8.1
 41
0.0
 11
1.0
 21
0.0
 71
     7
 72
     5
  7
BIGFONT
  1
{\T0.95;\W1.05263;天井材}
  0
LINE
  5
150
100
AcDbEntity
  8
4
  6
CONTINUOUS
100
AcDbLine
 10
111.418190002441
 20
-6.79690313339233
 11
128.173873901367
 21
-35.8185997009277
  0
LINE
  5
151
100
AcDbEntity
  8
4
  6
CONTINUOUS
100
AcDbLine
 10
128.173873901367
 20
-35.8185997009277
 11
158.511367797852
 21
-35.8185997009277
  0
INSERT
  5
152
100
AcDbEntity
  8
4
  6
CONTINUOUS
100
AcDbBlockReference
  2
MARK1_1
 10
111.418190002441
 20
-6.79690313339233
 41
6.0
 42
6.0
 50
300.0
  0
MTEXT
  5
153
100
AcDbEntity
  8
4
  6
CONTINUOUS
100
AcDbMText
 10
165.725735473633
 20
-37.731226348877
 40
8.1
 41
0.0
 11
1.0
 21
0.0
 71
     3
 72
     5
  7
BIGFONT
  1
{\T0.95;\W1.05263;別途工事}
  0
MTEXT
  5
154
100
AcDbEntity
  8
4
  6
CONTINUOUS
100
AcDbMText
 10
232.37546081543
 20
-129.184976196289
 40
18.9
 41
0.0
 11
1.0
 21
0.0
 71
     3
 72
     5
  7
STANDARD
  1
{\T1.03125;\W0.666667;WS-70N}
  0
MTEXT
  5
155
100
AcDbEntity
  8
4
  6
CONTINUOUS
100
AcDbMText
 10
67.0772356987
 20
-80.8117370605469
 40
13.5
 41
0.0
 11
1.0
 21
0.0
 71
     3
 72
     5
  7
BIGFONT
  1
{\W0.789474;ＡＬＣ納まり}
  0
MTEXT
  5
156
100
AcDbEntity
  8
4
  6
CONTINUOUS
100
AcDbMText
 10
-59.4290664672852
 20
54.4005813598633
 40
8.1
 41
0.0
 11
1.0
 21
0.0
 71
     9
 72
     5
  7
BIGFONT
  1
{\T0.95;\W1.05263;コーキング}
  0
LINE
  5
157
100
AcDbEntity
  8
4
  6
CONTINUOUS
100
AcDbLine
 10
-24.8678302764893
 20
25.0226745605469
 11
-57.929069519043
 21
52.9005813598633
  0
LINE
  5
158
100
AcDbEntity
  8
4
  6
CONTINUOUS
100
AcDbLine
 10
-57.929069519043
 20
52.9005813598633
 11
-107.504066467285
 21
52.9005813598633
  0
INSERT
  5
159
100
AcDbEntity
  8
4
  6
CONTINUOUS
100
AcDbBlockReference
  2
MARK1_1
 10
-24.8678302764893
 20
25.0226745605469
 41
6.0
 42
6.0
 50
140.0
  0
LINE
  5
15A
100
AcDbEntity
  8
1
  6
CONTINUOUS
100
AcDbLine
 10
303.752117365318
 20
33.2032477612217
 11
303.752117365318
 21
119.372401905062
  0
LINE
  5
15B
100
AcDbEntity
  8
1
  6
CONTINUOUS
100
AcDbLine
 10
313.752117365318
 20
17.976814629216
 11
313.752117365318
 21
33.2032471711617
  0
DIMENSION
  5
16B
100
AcDbEntity
  8
3
  6
CONTINUOUS
100
AcDbDimension
  2
*D12
 10
293.752117365318
 20
-58.1757679474959
 11
328.75212097168
 21
-58.1757736206055
 70
    32
  3
ISO-25_0-333333
100
AcDbAlignedDimension
 13
363.752117365318
 23
-16.3318810229579
 14
293.752117365318
 24
-19.3318810229579
 50
180.0
100
AcDbRotatedDimension
  0
LWPOLYLINE
  5
16C
100
AcDbEntity
  8
1
  6
CONTINUOUS
100
AcDbPolyline
 90
      439
 70
     1
 43
0.0
 10
376.039985330962
 20
20.9909651961379
 10
375.964249399674
 20
20.9152292648498
 42
-0.414213562373153
 10
375.539985330962
 20
20.9152292648498
 10
375.464249399674
 20
20.9909651961379
 42
0.198912367379808
 10
375.252117365318
 20
21.0788331617819
 42
0.198912367379842
 10
375.039985330962
 20
20.9909651961379
 10
374.964249399674
 20
20.9152292648498
 42
-0.414213562373153
 10
374.539985330962
 20
20.9152292648498
 10
374.464249399674
 20
20.9909651961379
 42
0.198912367379808
 10
374.252117365318
 20
21.0788331617819
 42
0.198912367379842
 10
374.039985330962
 20
20.9909651961379
 10
373.964249399674
 20
20.9152292648498
 42
-0.414213562373153
 10
373.539985330962
 20
20.9152292648498
 10
373.464249399674
 20
20.9909651961379
 42
0.198912367379808
 10
373.252117365318
 20
21.0788331617819
 42
0.198912367379842
 10
373.039985330962
 20
20.9909651961379
 10
372.964249399674
 20
20.9152292648498
 42
-0.414213562373153
 10
372.539985330962
 20
20.9152292648498
 10
372.464249399674
 20
20.9909651961379
 42
0.198912367379808
 10
372.252117365318
 20
21.0788331617819
 42
0.198912367379842
 10
372.039985330962
 20
20.9909651961379
 10
371.964249399674
 20
20.9152292648498
 42
-0.414213562373153
 10
371.539985330962
 20
20.9152292648498
 10
371.464249399674
 20
20.9909651961379
 42
0.198912367379808
 10
371.252117365318
 20
21.0788331617819
 42
0.198912367379842
 10
371.039985330962
 20
20.9909651961379
 10
370.964249399674
 20
20.9152292648498
 42
-0.414213562373153
 10
370.539985330962
 20
20.9152292648498
 10
370.464249399674
 20
20.9909651961379
 42
0.198912367379808
 10
370.252117365318
 20
21.0788331617819
 42
0.198912367379842
 10
370.039985330962
 20
20.9909651961379
 10
369.964249399674
 20
20.9152292648498
 42
-0.414213562373153
 10
369.539985330962
 20
20.9152292648498
 10
369.464249399674
 20
20.9909651961379
 42
0.198912367379808
 10
369.252117365318
 20
21.0788331617819
 42
0.198912367379842
 10
369.039985330962
 20
20.9909651961379
 10
368.964249399674
 20
20.9152292648498
 42
-0.414213562373153
 10
368.539985330962
 20
20.9152292648498
 10
368.464249399674
 20
20.9909651961379
 42
0.198912367379808
 10
368.252117365318
 20
21.0788331617819
 42
0.198912367379842
 10
368.039985330962
 20
20.9909651961379
 10
367.964249399674
 20
20.9152292648498
 42
-0.414213562373153
 10
367.539985330962
 20
20.9152292648498
 10
367.464249399674
 20
20.9909651961379
 42
0.198912367379808
 10
367.252117365318
 20
21.0788331617819
 42
0.198912367379842
 10
367.039985330962
 20
20.9909651961379
 10
366.964249399674
 20
20.9152292648498
 42
-0.414213562373153
 10
366.539985330962
 20
20.9152292648498
 10
366.464249399674
 20
20.9909651961379
 42
0.198912367379808
 10
366.252117365318
 20
21.0788331617819
 42
0.198912367379842
 10
366.039985330962
 20
20.9909651961379
 10
365.964249399674
 20
20.9152292648498
 42
-0.414213562373153
 10
365.539985330962
 20
20.9152292648498
 10
365.464249399674
 20
20.9909651961379
 42
0.198912367379808
 10
365.252117365318
 20
21.0788331617819
 42
0.198912367379842
 10
365.039985330962
 20
20.9909651961379
 10
364.964249399674
 20
20.9152292648498
 42
-0.414213562373153
 10
364.539985330962
 20
20.9152292648498
 10
364.464249399674
 20
20.9909651961379
 42
0.198912367379808
 10
364.252117365318
 20
21.0788331617819
 42
0.198912367379842
 10
364.039985330962
 20
20.9909651961379
 10
363.964249399674
 20
20.9152292648498
 42
-0.414213562373153
 10
363.539985330962
 20
20.9152292648498
 10
363.464249399674
 20
20.9909651961379
 42
0.198912367379808
 10
363.252117365318
 20
21.0788331617819
 42
0.198912367379842
 10
363.039985330962
 20
20.9909651961379
 10
362.964249399674
 20
20.9152292648498
 42
-0.414213562373153
 10
362.539985330962
 20
20.9152292648498
 10
362.464249399674
 20
20.9909651961379
 42
0.198912367379808
 10
362.252117365318
 20
21.0788331617819
 42
0.198912367379842
 10
362.039985330962
 20
20.9909651961379
 10
361.964249399674
 20
20.9152292648498
 42
-0.414213562373153
 10
361.539985330962
 20
20.9152292648498
 10
361.464249399674
 20
20.9909651961379
 42
0.198912367379808
 10
361.252117365318
 20
21.0788331617819
 42
0.198912367379842
 10
361.039985330962
 20
20.9909651961379
 10
360.964249399674
 20
20.9152292648498
 42
-0.414213562373153
 10
360.539985330962
 20
20.9152292648498
 10
360.464249399674
 20
20.9909651961379
 42
0.198912367379808
 10
360.252117365318
 20
21.0788331617819
 42
0.198912367379842
 10
360.039985330962
 20
20.9909651961379
 10
359.964249399674
 20
20.9152292648498
 42
-0.414213562373153
 10
359.539985330962
 20
20.9152292648498
 10
359.464249399674
 20
20.9909651961379
 42
0.198912367379808
 10
359.252117365318
 20
21.0788331617819
 42
0.198912367379842
 10
359.039985330962
 20
20.9909651961379
 10
358.964249399674
 20
20.9152292648498
 42
-0.414213562373153
 10
358.539985330962
 20
20.9152292648498
 10
358.464249399674
 20
20.9909651961379
 42
0.198912367379808
 10
358.252117365318
 20
21.0788331617819
 42
0.198912367379842
 10
358.039985330962
 20
20.9909651961379
 10
357.964249399674
 20
20.9152292648498
 42
-0.414213562373153
 10
357.539985330962
 20
20.9152292648498
 10
357.464249399674
 20
20.9909651961379
 42
0.198912367379808
 10
357.252117365318
 20
21.0788331617819
 42
0.198912367379842
 10
357.039985330962
 20
20.9909651961379
 10
356.964249399674
 20
20.9152292648498
 42
-0.414213562373153
 10
356.539985330962
 20
20.9152292648498
 10
356.464249399674
 20
20.9909651961379
 42
0.198912367379808
 10
356.252117365318
 20
21.0788331617819
 42
0.198912367379842
 10
356.039985330962
 20
20.9909651961379
 10
355.964249399674
 20
20.9152292648498
 42
-0.414213562373153
 10
355.539985330962
 20
20.9152292648498
 10
355.464249399674
 20
20.9909651961379
 42
0.198912367379808
 10
355.252117365318
 20
21.0788331617819
 42
0.198912367379842
 10
355.039985330962
 20
20.9909651961379
 10
354.964249399674
 20
20.9152292648498
 42
-0.414213562373153
 10
354.539985330962
 20
20.9152292648498
 10
354.464249399674
 20
20.9909651961379
 42
0.198912367379808
 10
354.252117365318
 20
21.0788331617819
 42
0.198912367379842
 10
354.039985330962
 20
20.9909651961379
 10
353.964249399674
 20
20.9152292648498
 42
-0.414213562373153
 10
353.539985330962
 20
20.9152292648498
 10
353.464249399674
 20
20.9909651961379
 42
0.198912367379808
 10
353.252117365318
 20
21.0788331617819
 42
0.198912367379842
 10
353.039985330962
 20
20.9909651961379
 10
352.964249399674
 20
20.9152292648498
 42
-0.414213562373153
 10
352.539985330962
 20
20.9152292648498
 10
352.464249399674
 20
20.9909651961379
 42
0.198912367379808
 10
352.252117365318
 20
21.0788331617819
 42
0.198912367379842
 10
352.039985330962
 20
20.9909651961379
 10
351.964249399674
 20
20.9152292648498
 42
-0.414213562373153
 10
351.539985330962
 20
20.9152292648498
 10
351.464249399674
 20
20.9909651961379
 42
0.198912367379808
 10
351.252117365318
 20
21.0788331617819
 42
0.198912367379842
 10
351.039985330962
 20
20.9909651961379
 10
350.964249399674
 20
20.9152292648498
 42
-0.414213562373153
 10
350.539985330962
 20
20.9152292648498
 10
350.464249399674
 20
20.9909651961379
 42
0.198912367379808
 10
350.252117365318
 20
21.0788331617819
 42
0.198912367379842
 10
350.039985330962
 20
20.9909651961379
 10
349.964249399674
 20
20.9152292648498
 42
-0.414213562373153
 10
349.539985330962
 20
20.9152292648498
 10
349.464249399674
 20
20.9909651961379
 42
0.198912367379808
 10
349.252117365318
 20
21.0788331617819
 42
0.198912367379842
 10
349.039985330962
 20
20.9909651961379
 10
348.964249399674
 20
20.9152292648498
 42
-0.414213562373153
 10
348.539985330962
 20
20.9152292648498
 10
348.464249399674
 20
20.9909651961379
 42
0.198912367379808
 10
348.252117365318
 20
21.0788331617819
 42
0.198912367379842
 10
348.039985330962
 20
20.9909651961379
 10
347.964249399674
 20
20.9152292648498
 42
-0.414213562373153
 10
347.539985330962
 20
20.9152292648498
 10
347.464249399674
 20
20.9909651961379
 42
0.198912367379808
 10
347.252117365318
 20
21.0788331617819
 42
0.198912367379842
 10
347.039985330962
 20
20.9909651961379
 10
346.964249399674
 20
20.9152292648498
 42
-0.414213562373153
 10
346.539985330962
 20
20.9152292648498
 10
346.464249399674
 20
20.9909651961379
 42
0.198912367379808
 10
346.252117365318
 20
21.0788331617819
 42
0.198912367379842
 10
346.039985330962
 20
20.9909651961379
 10
345.964249399674
 20
20.9152292648498
 42
-0.414213562373153
 10
345.539985330962
 20
20.9152292648498
 10
345.464249399674
 20
20.9909651961379
 42
0.198912367379808
 10
345.252117365318
 20
21.0788331617819
 42
0.198912367379842
 10
345.039985330962
 20
20.9909651961379
 10
344.964249399674
 20
20.9152292648498
 42
-0.414213562373153
 10
344.539985330962
 20
20.9152292648498
 10
344.464249399674
 20
20.9909651961379
 42
0.198912367379808
 10
344.252117365318
 20
21.0788331617819
 42
0.198912367379842
 10
344.039985330962
 20
20.9909651961379
 10
343.964249399674
 20
20.9152292648498
 42
-0.414213562373153
 10
343.539985330962
 20
20.9152292648498
 10
343.464249399674
 20
20.9909651961379
 42
0.198912367379808
 10
343.252117365318
 20
21.0788331617819
 42
0.198912367379842
 10
343.039985330962
 20
20.9909651961379
 10
342.964249399674
 20
20.9152292648498
 42
-0.414213562373153
 10
342.539985330962
 20
20.9152292648498
 10
342.464249399674
 20
20.9909651961379
 42
0.198912367379808
 10
342.252117365318
 20
21.0788331617819
 42
0.198912367379842
 10
342.039985330962
 20
20.9909651961379
 10
341.964249399674
 20
20.9152292648498
 42
-0.414213562373153
 10
341.539985330962
 20
20.9152292648498
 10
341.464249399674
 20
20.9909651961379
 42
0.198912367379808
 10
341.252117365318
 20
21.0788331617819
 42
0.198912367379842
 10
341.039985330962
 20
20.9909651961379
 10
340.964249399674
 20
20.9152292648498
 42
-0.414213562373153
 10
340.539985330962
 20
20.9152292648498
 10
340.464249399674
 20
20.9909651961379
 42
0.198912367379808
 10
340.252117365318
 20
21.0788331617819
 42
0.198912367379842
 10
340.039985330962
 20
20.9909651961379
 10
339.964249399674
 20
20.9152292648498
 42
-0.414213562373153
 10
339.539985330962
 20
20.9152292648498
 10
339.464249399674
 20
20.9909651961379
 42
0.198912367379808
 10
339.252117365318
 20
21.0788331617819
 42
0.198912367379842
 10
339.039985330962
 20
20.9909651961379
 10
338.964249399674
 20
20.9152292648498
 42
-0.414213562373153
 10
338.539985330962
 20
20.9152292648498
 10
338.464249399674
 20
20.9909651961379
 42
0.198912367379808
 10
338.252117365318
 20
21.0788331617819
 42
0.198912367379842
 10
338.039985330962
 20
20.9909651961379
 10
337.964249399674
 20
20.9152292648498
 42
-0.414213562373153
 10
337.539985330962
 20
20.9152292648498
 10
337.464249399674
 20
20.9909651961379
 42
0.198912367379808
 10
337.252117365318
 20
21.0788331617819
 42
0.198912367379842
 10
337.039985330962
 20
20.9909651961379
 10
336.964249399674
 20
20.9152292648498
 42
-0.414213562373153
 10
336.539985330962
 20
20.9152292648498
 10
336.464249399674
 20
20.9909651961379
 42
0.198912367379808
 10
336.252117365318
 20
21.0788331617819
 42
0.198912367379842
 10
336.039985330962
 20
20.9909651961379
 10
335.964249399674
 20
20.9152292648498
 42
-0.414213562373153
 10
335.539985330962
 20
20.9152292648498
 10
335.464249399674
 20
20.9909651961379
 42
0.198912367379808
 10
335.252117365318
 20
21.0788331617819
 42
0.198912367379842
 10
335.039985330962
 20
20.9909651961379
 10
334.964249399674
 20
20.9152292648498
 42
-0.414213562373153
 10
334.539985330962
 20
20.9152292648498
 10
334.464249399674
 20
20.9909651961379
 42
0.198912367379808
 10
334.252117365318
 20
21.0788331617819
 42
0.198912367379842
 10
334.039985330962
 20
20.9909651961379
 10
333.964249399674
 20
20.9152292648498
 42
-0.414213562373153
 10
333.539985330962
 20
20.9152292648498
 10
333.464249399674
 20
20.9909651961379
 42
0.198912367379808
 10
333.252117365318
 20
21.0788331617819
 42
0.198912367379842
 10
333.039985330962
 20
20.9909651961379
 10
332.964249399674
 20
20.9152292648498
 42
-0.414213562373153
 10
332.539985330962
 20
20.9152292648498
 10
332.464249399674
 20
20.9909651961379
 42
0.198912367379808
 10
332.252117365318
 20
21.0788331617819
 42
0.198912367379842
 10
332.039985330962
 20
20.9909651961379
 10
331.964249399674
 20
20.9152292648498
 42
-0.414213562373153
 10
331.539985330962
 20
20.9152292648498
 10
331.464249399674
 20
20.9909651961379
 42
0.198912367379808
 10
331.252117365318
 20
21.0788331617819
 42
0.198912367379842
 10
331.039985330962
 20
20.9909651961379
 10
330.964249399674
 20
20.9152292648498
 42
-0.414213562373153
 10
330.539985330962
 20
20.9152292648498
 10
330.464249399674
 20
20.9909651961379
 42
0.198912367379808
 10
330.252117365318
 20
21.0788331617819
 42
0.198912367379842
 10
330.039985330962
 20
20.9909651961379
 10
329.964249399674
 20
20.9152292648498
 42
-0.414213562373153
 10
329.539985330962
 20
20.9152292648498
 10
329.464249399674
 20
20.9909651961379
 42
0.198912367379808
 10
329.252117365318
 20
21.0788331617819
 42
0.198912367379842
 10
329.039985330962
 20
20.9909651961379
 10
328.964249399674
 20
20.9152292648498
 42
-0.414213562373153
 10
328.539985330962
 20
20.9152292648498
 10
328.464249399674
 20
20.9909651961379
 42
0.198912367379808
 10
328.252117365318
 20
21.0788331617819
 42
0.198912367379842
 10
328.039985330962
 20
20.9909651961379
 10
327.964249399674
 20
20.9152292648498
 42
-0.414213562373153
 10
327.539985330962
 20
20.9152292648498
 10
327.464249399674
 20
20.9909651961379
 42
0.198912367379808
 10
327.252117365318
 20
21.0788331617819
 42
0.198912367379842
 10
327.039985330962
 20
20.9909651961379
 10
326.964249399674
 20
20.9152292648498
 42
-0.414213562373153
 10
326.539985330962
 20
20.9152292648498
 10
326.464249399674
 20
20.9909651961379
 42
0.198912367379808
 10
326.252117365318
 20
21.0788331617819
 42
0.198912367379842
 10
326.039985330962
 20
20.9909651961379
 10
325.964249399674
 20
20.9152292648498
 42
-0.414213562373153
 10
325.539985330962
 20
20.9152292648498
 10
325.464249399674
 20
20.9909651961379
 42
0.198912367379808
 10
325.252117365318
 20
21.0788331617819
 42
0.198912367379842
 10
325.039985330962
 20
20.9909651961379
 10
324.964249399674
 20
20.9152292648498
 42
-0.414213562373153
 10
324.539985330962
 20
20.9152292648498
 10
324.464249399674
 20
20.9909651961379
 42
0.198912367379808
 10
324.252117365318
 20
21.0788331617819
 42
0.198912367379842
 10
324.039985330962
 20
20.9909651961379
 10
323.964249399674
 20
20.9152292648498
 42
-0.414213562373153
 10
323.539985330962
 20
20.9152292648498
 10
323.464249399674
 20
20.9909651961379
 42
0.198912367379808
 10
323.252117365318
 20
21.0788331617819
 42
0.198912367379842
 10
323.039985330962
 20
20.9909651961379
 10
322.964249399674
 20
20.9152292648498
 42
-0.414213562373153
 10
322.539985330962
 20
20.9152292648498
 10
322.464249399674
 20
20.9909651961379
 42
0.198912367379808
 10
322.252117365318
 20
21.0788331617819
 42
0.198912367379842
 10
322.039985330962
 20
20.9909651961379
 10
321.964249399674
 20
20.9152292648498
 42
-0.414213562373153
 10
321.539985330962
 20
20.9152292648498
 10
321.464249399674
 20
20.9909651961379
 42
0.198912367379808
 10
321.252117365318
 20
21.0788331617819
 42
0.198912367379842
 10
321.039985330962
 20
20.9909651961379
 10
320.964249399674
 20
20.9152292648498
 42
-0.414213562373153
 10
320.539985330962
 20
20.9152292648498
 10
320.464249399674
 20
20.9909651961379
 42
0.198912367379808
 10
320.252117365318
 20
21.0788331617819
 42
0.198912367379842
 10
320.039985330962
 20
20.9909651961379
 10
319.964249399674
 20
20.9152292648498
 42
-0.414213562373153
 10
319.539985330962
 20
20.9152292648498
 10
319.464249399674
 20
20.9909651961379
 42
0.198912367379808
 10
319.252117365318
 20
21.0788331617819
 42
0.198912367379842
 10
319.039985330962
 20
20.9909651961379
 10
318.839985330962
 20
20.7909651961379
 42
0.198912367379489
 10
318.752117365318
 20
20.5788331617819
 10
318.752117365318
 20
17.0030972304938
 42
-0.414213562373285
 10
318.452117365318
 20
16.7030972304938
 10
316.601964888018
 20
16.7030972304938
 42
0.459804496854009
 10
316.30547456885
 20
16.3573425516099
 10
321.088636577564
 20
-14.6375472648558
 42
0.999999999999995
 10
323.559389237295
 20
-14.2562582741565
 10
319.43951616272
 20
12.4405192490951
 42
-0.45980449685402
 10
324.381021482183
 20
18.2030972304938
 10
340.452117365318
 20
18.2030972304938
 42
-0.414213562373107
 10
342.952117365318
 20
15.7030972304938
 10
342.952117365318
 20
3.20309723049382
 42
0.414213562373105
 10
343.952117365318
 20
2.20309723049382
 10
345.152117365318
 20
2.20309723049382
 42
-0.414213562373067
 10
345.452117365318
 20
1.90309723049382
 10
345.452117365318
 20
-14.4469027695062
 42
1.0
 10
347.952117365318
 20
-14.4469027695062
 10
347.952117365318
 20
4.40309723049382
 42
0.414213562373069
 10
347.652117365318
 20
4.70309723049382
 10
345.752117365318
 20
4.70309723049382
 42
-0.414213562373067
 10
345.452117365318
 20
5.00309723049383
 10
345.452117365318
 20
15.7030972304938
 42
-0.414213562373069
 10
347.952117365318
 20
18.2030972304938
 10
400.952117365318
 20
18.2030972304938
 42
0.414213562373322
 10
401.252117365318
 20
18.5030972304938
 10
401.252117365318
 20
20.4030972304938
 42
0.414213562373288
 10
400.952117365318
 20
20.7030972304938
 10
400.87638143403
 20
20.7030972304938
 42
-0.198912367379468
 10
400.664249399674
 20
20.7909651961379
 10
400.464249399674
 20
20.9909651961379
 42
0.198912367379994
 10
400.252117365318
 20
21.0788331617819
 42
0.198912367379842
 10
400.039985330962
 20
20.9909651961379
 10
399.964249399674
 20
20.9152292648498
 42
-0.414213562373002
 10
399.539985330962
 20
20.9152292648498
 10
399.464249399674
 20
20.9909651961379
 42
0.198912367379994
 10
399.252117365318
 20
21.0788331617819
 42
0.198912367379842
 10
399.039985330962
 20
20.9909651961379
 10
398.964249399674
 20
20.9152292648498
 42
-0.414213562373002
 10
398.539985330962
 20
20.9152292648498
 10
398.464249399674
 20
20.9909651961379
 42
0.198912367379994
 10
398.252117365318
 20
21.0788331617819
 42
0.198912367379842
 10
398.039985330962
 20
20.9909651961379
 10
397.964249399674
 20
20.9152292648498
 42
-0.414213562373002
 10
397.539985330962
 20
20.9152292648498
 10
397.464249399674
 20
20.9909651961379
 42
0.198912367379994
 10
397.252117365318
 20
21.0788331617819
 42
0.198912367379842
 10
397.039985330962
 20
20.9909651961379
 10
396.964249399674
 20
20.9152292648498
 42
-0.414213562373002
 10
396.539985330962
 20
20.9152292648498
 10
396.464249399674
 20
20.9909651961379
 42
0.198912367379994
 10
396.252117365318
 20
21.0788331617819
 42
0.198912367379842
 10
396.039985330962
 20
20.9909651961379
 10
395.964249399674
 20
20.9152292648498
 42
-0.414213562373002
 10
395.539985330962
 20
20.9152292648498
 10
395.464249399674
 20
20.9909651961379
 42
0.198912367379994
 10
395.252117365318
 20
21.0788331617819
 42
0.198912367379842
 10
395.039985330962
 20
20.9909651961379
 10
394.964249399674
 20
20.9152292648498
 42
-0.414213562373002
 10
394.539985330962
 20
20.9152292648498
 10
394.464249399674
 20
20.9909651961379
 42
0.198912367379994
 10
394.252117365318
 20
21.0788331617819
 42
0.198912367379842
 10
394.039985330962
 20
20.9909651961379
 10
393.964249399674
 20
20.9152292648498
 42
-0.414213562373002
 10
393.539985330962
 20
20.9152292648498
 10
393.464249399674
 20
20.9909651961379
 42
0.198912367379994
 10
393.252117365318
 20
21.0788331617819
 42
0.198912367379842
 10
393.039985330962
 20
20.9909651961379
 10
392.964249399674
 20
20.9152292648498
 42
-0.414213562373002
 10
392.539985330962
 20
20.9152292648498
 10
392.464249399674
 20
20.9909651961379
 42
0.198912367379994
 10
392.252117365318
 20
21.0788331617819
 42
0.198912367379842
 10
392.039985330962
 20
20.9909651961379
 10
391.964249399674
 20
20.9152292648498
 42
-0.414213562373002
 10
391.539985330962
 20
20.9152292648498
 10
391.464249399674
 20
20.9909651961379
 42
0.198912367379994
 10
391.252117365318
 20
21.0788331617819
 42
0.198912367379842
 10
391.039985330962
 20
20.9909651961379
 10
390.964249399674
 20
20.9152292648498
 42
-0.414213562373002
 10
390.539985330962
 20
20.9152292648498
 10
390.464249399674
 20
20.9909651961379
 42
0.198912367379994
 10
390.252117365318
 20
21.0788331617819
 42
0.198912367379842
 10
390.039985330962
 20
20.9909651961379
 10
389.964249399674
 20
20.9152292648498
 42
-0.414213562373002
 10
389.539985330962
 20
20.9152292648498
 10
389.464249399674
 20
20.9909651961379
 42
0.198912367379994
 10
389.252117365318
 20
21.0788331617819
 42
0.198912367379842
 10
389.039985330962
 20
20.9909651961379
 10
388.964249399674
 20
20.9152292648498
 42
-0.414213562373002
 10
388.539985330962
 20
20.9152292648498
 10
388.464249399674
 20
20.9909651961379
 42
0.198912367379994
 10
388.252117365318
 20
21.0788331617819
 42
0.198912367379842
 10
388.039985330962
 20
20.9909651961379
 10
387.964249399674
 20
20.9152292648498
 42
-0.414213562373002
 10
387.539985330962
 20
20.9152292648498
 10
387.464249399674
 20
20.9909651961379
 42
0.198912367379994
 10
387.252117365318
 20
21.0788331617819
 42
0.198912367379842
 10
387.039985330962
 20
20.9909651961379
 10
386.964249399674
 20
20.9152292648498
 42
-0.414213562373002
 10
386.539985330962
 20
20.9152292648498
 10
386.464249399674
 20
20.9909651961379
 42
0.198912367379994
 10
386.252117365318
 20
21.0788331617819
 42
0.198912367379842
 10
386.039985330962
 20
20.9909651961379
 10
385.964249399674
 20
20.9152292648498
 42
-0.414213562373002
 10
385.539985330962
 20
20.9152292648498
 10
385.464249399674
 20
20.9909651961379
 42
0.198912367379994
 10
385.252117365318
 20
21.0788331617819
 42
0.198912367379842
 10
385.039985330962
 20
20.9909651961379
 10
384.964249399674
 20
20.9152292648498
 42
-0.414213562373002
 10
384.539985330962
 20
20.9152292648498
 10
384.464249399674
 20
20.9909651961379
 42
0.198912367379994
 10
384.252117365318
 20
21.0788331617819
 42
0.198912367379842
 10
384.039985330962
 20
20.9909651961379
 10
383.964249399674
 20
20.9152292648498
 42
-0.414213562373002
 10
383.539985330962
 20
20.9152292648498
 10
383.464249399674
 20
20.9909651961379
 42
0.198912367379994
 10
383.252117365318
 20
21.0788331617819
 42
0.198912367379842
 10
383.039985330962
 20
20.9909651961379
 10
382.964249399674
 20
20.9152292648498
 42
-0.414213562373002
 10
382.539985330962
 20
20.9152292648498
 10
382.464249399674
 20
20.9909651961379
 42
0.198912367379808
 10
382.252117365318
 20
21.0788331617819
 42
0.198912367379842
 10
382.039985330962
 20
20.9909651961379
 10
381.964249399674
 20
20.9152292648498
 42
-0.414213562373153
 10
381.539985330962
 20
20.9152292648498
 10
381.464249399674
 20
20.9909651961379
 42
0.198912367379808
 10
381.252117365318
 20
21.0788331617819
 42
0.198912367379842
 10
381.039985330962
 20
20.9909651961379
 10
380.964249399674
 20
20.9152292648498
 42
-0.414213562373153
 10
380.539985330962
 20
20.9152292648498
 10
380.464249399674
 20
20.9909651961379
 42
0.198912367379808
 10
380.252117365318
 20
21.0788331617819
 42
0.198912367379842
 10
380.039985330962
 20
20.9909651961379
 10
379.964249399674
 20
20.9152292648498
 42
-0.414213562373153
 10
379.539985330962
 20
20.9152292648498
 10
379.464249399674
 20
20.9909651961379
 42
0.198912367379808
 10
379.252117365318
 20
21.0788331617819
 42
0.198912367379842
 10
379.039985330962
 20
20.9909651961379
 10
378.964249399674
 20
20.9152292648498
 42
-0.414213562373153
 10
378.539985330962
 20
20.9152292648498
 10
378.464249399674
 20
20.9909651961379
 42
0.198912367379808
 10
378.252117365318
 20
21.0788331617819
 42
0.198912367379842
 10
378.039985330962
 20
20.9909651961379
 10
377.964249399674
 20
20.9152292648498
 42
-0.414213562373153
 10
377.539985330962
 20
20.9152292648498
 10
377.464249399674
 20
20.9909651961379
 42
0.198912367379808
 10
377.252117365318
 20
21.0788331617819
 42
0.198912367379842
 10
377.039985330962
 20
20.9909651961379
 10
376.964249399674
 20
20.9152292648498
 42
-0.414213562373153
 10
376.539985330962
 20
20.9152292648498
 10
376.464249399674
 20
20.9909651961379
 42
0.198912367379808
 10
376.252117365318
 20
21.0788331617819
 42
0.198912367379842
 10
376.039985330962
 20
20.9909651961379
  0
LWPOLYLINE
  5
16D
100
AcDbEntity
  8
1
  6
CONTINUOUS
100
AcDbPolyline
 90
       62
 70
     1
 43
0.0
 10
295.965782020287
 20
-19.7969027695062
 42
0.387794582408961
 10
296.264539778927
 20
-19.5241754967789
 42
-0.387794582408811
 10
299.252117365318
 20
-16.7969027695062
 10
363.452117365318
 20
-16.7969027695062
 42
0.414213562373329
 10
363.752117365318
 20
-16.4969027695062
 10
363.752117365318
 20
-7.09690276950618
 42
0.41421356237329
 10
363.452117365318
 20
-6.79690276950618
 10
349.052117365318
 20
-6.79690276950617
 42
-0.414213562373326
 10
348.752117365318
 20
-6.49690276950617
 10
348.752117365318
 20
-1.67135903415997
 42
0.245392683956495
 10
348.666403079604
 20
-1.50722867283031
 42
-0.522232967867123
 10
348.666403079604
 20
-0.686576866182037
 42
0.245392683956506
 10
348.752117365318
 20
-0.522446504852379
 10
348.752117365318
 20
5.60309723049382
 42
0.414213562373282
 10
348.452117365318
 20
5.90309723049382
 10
346.452117365318
 20
5.90309723049382
 42
0.414213562373103
 10
345.452117365318
 20
4.90309723049382
 42
0.414213562373215
 10
345.652117365318
 20
4.70309723049382
 10
347.652117365318
 20
4.70309723049382
 42
-0.414213562373066
 10
347.952117365318
 20
4.40309723049382
 10
347.952117365318
 20
-6.89690276950618
 42
0.414213562373108
 10
348.952117365318
 20
-7.89690276950618
 10
362.352117365318
 20
-7.89690276950618
 42
-0.414213562372768
 10
362.652117365318
 20
-8.19690276950618
 10
362.652117365318
 20
-11.6969027695062
 42
-0.414213562372846
 10
362.352117365318
 20
-11.9969027695062
 10
359.152117365318
 20
-11.9969027695062
 42
0.414213562372761
 10
358.752117365318
 20
-12.3969027695062
 42
0.414213562373027
 10
359.152117365318
 20
-12.7969027695062
 10
362.352117365318
 20
-12.7969027695062
 42
-0.414213562372767
 10
362.652117365318
 20
-13.0969027695062
 10
362.652117365318
 20
-15.3969027695062
 42
-0.414213562372838
 10
362.352117365318
 20
-15.6969027695062
 10
295.152117365318
 20
-15.6969027695062
 42
-0.414213562373069
 10
294.852117365318
 20
-15.3969027695062
 10
294.852117365318
 20
13.973846890786
 42
-0.376715072980047
 10
295.113315610098
 20
14.2713270141418
 10
314.813315610098
 20
16.8408922315331
 42
-0.452733422661442
 10
315.152117365318
 20
16.5434121081773
 10
315.152117365318
 20
15.1315530728172
 42
-0.376715072980021
 10
314.890919120539
 20
14.8340729494614
 10
311.513315610098
 20
14.3935159698387
 42
0.376715072980028
 10
311.252117365318
 20
14.0960358464828
 10
311.252117365318
 20
13.5918004767113
 42
0.452733422661417
 10
311.590919120539
 20
13.2943203533555
 10
315.381456549386
 20
13.7887382788573
 42
0.376715072980136
 10
316.252117365318
 20
14.7803386900435
 10
316.252117365318
 20
16.4030972304938
 42
-0.414213562373288
 10
316.552117365318
 20
16.7030972304938
 10
318.452117365318
 20
16.7030972304938
 42
0.414213562373329
 10
318.752117365318
 20
17.0030972304938
 10
318.752117365318
 20
20.2030972304938
 42
0.414213562373106
 10
317.752117365318
 20
21.2030972304938
 10
317.052117365318
 20
21.2030972304938
 42
0.414213562373322
 10
316.752117365318
 20
20.9030972304938
 10
316.752117365318
 20
18.4665080175741
 42
-0.376715072980021
 10
316.490919120539
 20
18.1690278942182
 10
294.013315610098
 20
15.2371665667694
 42
0.376715072980028
 10
293.752117365318
 20
14.9396864434136
 10
293.752117365318
 20
-19.4969027695062
 42
0.414213562373288
 10
294.052117365318
 20
-19.7969027695062
 10
295.965782020287
 20
-19.7969027695062
  0
INSERT
  5
16F
100
AcDbEntity
  8
1
  6
CONTINUOUS
100
AcDbBlockReference
  2
M4テックス13_0003
 10
348.752117365318
 20
-1.09690276950618
 41
1.0
 42
1.0
 50
0.0
  0
LINE
  5
1B2
100
AcDbEntity
  8
1
  6
CONTINUOUS
100
AcDbLine
 10
351.752117365318
 20
-6.79690276950618
 11
351.752117365318
 21
2.20309723049382
  0
LINE
  5
1B3
100
AcDbEntity
  8
1
  6
CONTINUOUS
100
AcDbLine
 10
351.752117365318
 20
-6.79690276950618
 11
471.834823685449
 21
-6.79690276950617
  0
LINE
  5
1B4
100
AcDbEntity
  8
1
  6
CONTINUOUS
100
AcDbLine
 10
351.752117365318
 20
2.20309723049382
 11
471.834823685449
 21
2.20309723049382
  0
LINE
  5
1B5
100
AcDbEntity
  8
1
  6
CONTINUOUS
100
AcDbLine
 10
471.834823685449
 20
-3.79690276950618
 11
351.752117365318
 21
-3.79690276950618
  0
LINE
  5
1B6
100
AcDbEntity
  8
1
  6
CONTINUOUS
100
AcDbLine
 10
471.834823685449
 20
-0.796902769506175
 11
351.752117365318
 21
-0.796902769506175
  0
DIMENSION
  5
1C6
100
AcDbEntity
  8
3
  6
CONTINUOUS
100
AcDbDimension
  2
*D13
 10
257.468452023155
 20
18.2030989880284
 11
257.468475341797
 21
-0.796900749206543
 70
    32
  3
ISO-25_0-333333
100
AcDbAlignedDimension
 13
294.052117365318
 23
-19.7969027695062
 14
282.493492184613
 24
18.2030989880284
 50
90.0
100
AcDbRotatedDimension
  0
DIMENSION
  5
1D6
100
AcDbEntity
  8
3
  6
CONTINUOUS
100
AcDbDimension
  2
*D14
 10
274.570992032995
 20
15.2030972304938
 11
274.571014404297
 21
-2.29690432548523
 70
    32
  3
ISO-25_0-333333
100
AcDbAlignedDimension
 13
289.552117556053
 23
-19.7969027703086
 14
293.752117365318
 24
15.2030972304938
 50
90.0
100
AcDbRotatedDimension
  0
DIMENSION
  5
1E8
100
AcDbEntity
  8
3
  6
CONTINUOUS
100
AcDbDimension
  2
*D15
 10
274.570991724449
 20
18.2030989880284
 11
274.571014404297
 21
24.7280979156494
 70
    32
  3
ISO-25_0-333333
100
AcDbAlignedDimension
 13
289.252117365318
 23
15.2030989880284
 14
290.541746306891
 24
18.2030989880284
 50
90.0
100
AcDbRotatedDimension
1001
ACAD
1000
DSTYLE
1002
{
1070
   280
1070
     2
1002
}
  0
DIMENSION
  5
1F8
100
AcDbEntity
  8
3
  6
CONTINUOUS
100
AcDbDimension
  2
*D16
 10
393.726704711625
 20
-16.7969027695062
 11
393.726715087891
 21
-11.7969024181366
 70
    32
  3
ISO-25_0-333333
100
AcDbAlignedDimension
 13
385.050903350052
 23
-6.79690276950617
 14
363.452117365318
 24
-16.7969027695062
 50
270.0
100
AcDbRotatedDimension
  0
DIMENSION
  5
206
100
AcDbEntity
  8
3
  6
CONTINUOUS
100
AcDbDimension
  2
*D17
 10
393.726704711625
 20
-19.7969027695062
 11
393.726715087891
 21
-26.3219032287598
 70
    32
  3
ISO-25_0-333333
100
AcDbAlignedDimension
 13
363.452117365318
 23
-16.7969027695062
 14
384.508665764954
 24
-19.7969027695062
 50
270.0
100
AcDbRotatedDimension
1001
ACAD
1000
DSTYLE
1002
{
1070
    75
1070
     1
1070
   280
1070
     2
1002
}
  0
DIMENSION
  5
216
100
AcDbEntity
  8
3
  6
CONTINUOUS
100
AcDbDimension
  2
*D18
 10
293.752117365318
 20
66.4059148885456
 11
284.442749023438
 21
66.4059219360352
 70
    32
  3
ISO-25_0-333333
100
AcDbAlignedDimension
 13
303.752117365318
 23
68.4270355394324
 14
293.752117365318
 24
14.9396864434136
 50
180.0
100
AcDbRotatedDimension
1001
ACAD
1000
DSTYLE
1002
{
1070
    75
1070
     1
1070
   280
1070
     2
1002
}
  0
MTEXT
  5
217
100
AcDbEntity
  8
4
  6
CONTINUOUS
100
AcDbMText
 10
462.517333984375
 20
-34.3185997009277
 40
8.1
 41
0.0
 11
1.0
 21
0.0
 71
     7
 72
     5
  7
BIGFONT
  1
{\T0.95;\W1.05263;天井材}
  0
LINE
  5
218
100
AcDbEntity
  8
4
  6
CONTINUOUS
100
AcDbLine
 10
444.261627197266
 20
-6.79690313339233
 11
461.017333984375
 21
-35.8185997009277
  0
LINE
  5
219
100
AcDbEntity
  8
4
  6
CONTINUOUS
100
AcDbLine
 10
461.017333984375
 20
-35.8185997009277
 11
491.354797363281
 21
-35.8185997009277
  0
INSERT
  5
21A
100
AcDbEntity
  8
4
  6
CONTINUOUS
100
AcDbBlockReference
  2
MARK1_1
 10
444.261627197266
 20
-6.79690313339233
 41
6.0
 42
6.0
 50
300.0
  0
MTEXT
  5
21B
100
AcDbEntity
  8
4
  6
CONTINUOUS
100
AcDbMText
 10
498.569195556641
 20
-37.731226348877
 40
8.1
 41
0.0
 11
1.0
 21
0.0
 71
     3
 72
     5
  7
BIGFONT
  1
{\T0.95;\W1.05263;別途工事}
  0
MTEXT
  5
21C
100
AcDbEntity
  8
4
  6
CONTINUOUS
100
AcDbMText
 10
273.414370727539
 20
54.4005813598633
 40
8.1
 41
0.0
 11
1.0
 21
0.0
 71
     9
 72
     5
  7
BIGFONT
  1
{\T0.95;\W1.05263;コーキング}
  0
LINE
  5
21D
100
AcDbEntity
  8
4
  6
CONTINUOUS
100
AcDbLine
 10
307.975616455078
 20
25.0226745605469
 11
274.914367675781
 21
52.9005813598633
  0
LINE
  5
21E
100
AcDbEntity
  8
4
  6
CONTINUOUS
100
AcDbLine
 10
274.914367675781
 20
52.9005813598633
 11
225.339370727539
 21
52.9005813598633
  0
INSERT
  5
21F
100
AcDbEntity
  8
4
  6
CONTINUOUS
100
AcDbBlockReference
  2
MARK1_1
 10
307.975616455078
 20
25.0226745605469
 41
6.0
 42
6.0
 50
140.0
  0
LINE
  5
220
100
AcDbEntity
  8
1
  6
CONTINUOUS
100
AcDbLine
 10
318.752117365318
 20
33.2030989880284
 11
318.752117365318
 21
119.372401905062
  0
INSERT
  5
222
100
AcDbEntity
  8
1
  6
CONTINUOUS
100
AcDbBlockReference
  2
あ_0004
 10
348.233198808928
 20
26.5260702689233
 41
1.0
 42
1.0
 50
0.0
  0
LINE
  5
232
100
AcDbEntity
  8
1
  6
CONTINUOUS
100
AcDbLine
 10
318.752117365318
 20
33.2030989880284
 11
303.752117365318
 21
33.2030989880284
  0
SPLINE
  5
233
100
AcDbEntity
  8
1
  6
CONTINUOUS
100
AcDbSpline
210
0.0
220
0.0
230
1.0
 70
     8
 71
     3
 72
     9
 73
     5
 74
     0
 42
1.00000000000000E-007
 43
1.00000000000000E-007
 40
0.0
 40
0.0
 40
0.0
 40
0.0
 40
9.53473453039044
 40
17.0582404424662
 40
17.0582404424662
 40
17.0582404424662
 40
17.0582404424662
 10
303.752117365318
 20
33.2030989880284
 30
0.0
 10
304.429921301697
 20
31.2139652724988
 30
0.0
 10
307.141137047213
 20
23.2574304103754
 30
0.0
 10
304.809868280154
 20
17.9070004288778
 30
0.0
 10
304.227051088389
 20
16.569392933503
 30
0.0
  0
HATCH
  5
234
100
AcDbEntity
  8
1
  6
CONTINUOUS
100
AcDbHatch
 10
0.0
 20
0.0
 30
0.0
210
0.0
220
0.0
230
1.0
  2
_U
 70
     0
 71
     0
 91
        1
 92
        5
 93
        8
 72
     1
 10
303.752117365318
 20
33.2030989880284
 11
313.752117365318
 21
33.2030989880284
 72
     1
 10
313.752117365318
 20
33.2030989880284
 11
313.752117365318
 21
17.8117928826677
 72
     1
 10
313.752117365318
 20
17.8117928826677
 11
304.227051088389
 21
16.569392933503
 72
     1
 10
304.227051088389
 20
16.569392933503
 11
305.50676472487
 21
20.2708202135003
 72
     1
 10
305.50676472487
 20
20.2708202135003
 11
305.793039532966
 21
21.9262446971082
 72
     1
 10
305.793039532966
 20
21.9262446971082
 11
305.484206698479
 21
27.12347509437
 72
     1
 10
305.484206698479
 20
27.12347509437
 11
303.752117365318
 21
33.2030989880284
 72
     1
 10
303.752117365318
 20
33.2030989880284
 11
303.752117365318
 21
33.2030989880284
 97
        0
 75
     0
 76
     0
 52
45.0
 41
6.0
 77
     0
 78
     2
 53
45.0
 43
-39.0913162231445
 44
-19.6318817138672
 45
-4.24264068711928
 46
4.24264068711929
 79
     0
 53
135.0
 43
-39.0913162231445
 44
-19.6318817138672
 45
4.24264068711928
 46
4.24264068711928
 79
     0
 47
0.322189
 98
        1
 10
0.0
 20
0.0
  0
LINE
  5
235
100
AcDbEntity
  8
1
  6
CONTINUOUS
100
AcDbLine
 10
418.752117365318
 20
26.0788331617819
 11
418.752117365318
 21
119.372401905062
  0
DIMENSION
  5
244
100
AcDbEntity
  8
3
  6
CONTINUOUS
100
AcDbDimension
  2
*D19
 10
437.594707723244
 20
21.2030972304938
 11
437.594757080078
 21
7.2030953168869
 70
    32
  3
ISO-25_0-333333
100
AcDbAlignedDimension
 13
427.463523503896
 23
-6.79690276950617
 14
413.752117365318
 24
21.2030972304938
 50
90.0
100
AcDbRotatedDimension
1001
ACAD
1000
DSTYLE
1002
{
1070
    75
1070
     1
1002
}
  0
DIMENSION
  5
253
100
AcDbEntity
  8
3
  6
CONTINUOUS
100
AcDbDimension
  2
*D20
 10
437.594718572256
 20
-19.7969027695062
 11
437.594757080078
 21
-13.2969024181366
 70
    32
  3
ISO-25_0-333333
100
AcDbAlignedDimension
 13
437.594718572256
 23
-6.79690276950617
 14
295.965782020287
 24
-19.7969027695062
 50
270.0
100
AcDbRotatedDimension
1001
ACAD
1000
DSTYLE
1002
{
1070
    75
1070
     1
1002
}
  0
DIMENSION
  5
261
100
AcDbEntity
  8
3
  6
CONTINUOUS
100
AcDbDimension
  2
*D21
 10
318.752117365318
 20
106.776584103551
 11
311.25212097168
 21
106.776588439941
 70
    32
  3
ISO-25_0-333333
100
AcDbAlignedDimension
 13
303.752117365318
 23
104.399744357147
 14
318.752117365318
 24
104.193062640069
 50
0.0
100
AcDbRotatedDimension
1001
ACAD
1000
DSTYLE
1002
{
1070
    75
1070
     1
1070
    76
1070
     1
1002
}
  0
DIMENSION
  5
26F
100
AcDbEntity
  8
3
  6
CONTINUOUS
100
AcDbDimension
  2
*D22
 10
418.752117365318
 20
106.776584103551
 11
368.752136230469
 21
106.776588439941
 70
    32
  3
ISO-25_0-333333
100
AcDbAlignedDimension
 13
318.752117365318
 23
104.193062640069
 14
418.752117365318
 24
102.642949761979
 50
0.0
100
AcDbRotatedDimension
1001
ACAD
1000
DSTYLE
1002
{
1070
    75
1070
     1
1070
    76
1070
     1
1002
}
  0
INSERT
  5
271
100
AcDbEntity
  8
1
  6
CONTINUOUS
100
AcDbBlockReference
  2
M5ヘックス25_0005
 10
372.266921370538
 20
18.2030972304938
 41
1.0
 42
1.0
 50
0.0
  0
DIMENSION
  5
305
100
AcDbEntity
  8
3
  6
CONTINUOUS
100
AcDbDimension
  2
*D23
 10
257.468467351553
 20
33.2030989880284
 11
257.468505859375
 21
25.7030982971191
 70
    32
  3
ISO-25_0-333333
100
AcDbAlignedDimension
 13
286.041740056631
 23
18.2030989880284
 14
303.752117365318
 24
33.2030989880284
 50
90.0
100
AcDbRotatedDimension
  0
LINE
  5
306
100
AcDbEntity
  8
1
  6
CONTINUOUS
100
AcDbLine
 10
-9.92560977846436
 20
-96.4496781159326
 11
65.8130512523479
 21
-96.4496781159326
  0
MTEXT
  5
307
100
AcDbEntity
  8
4
  6
CONTINUOUS
100
AcDbMText
 10
422.551391601563
 20
-80.8117370605469
 40
13.5
 41
0.0
 11
1.0
 21
0.0
 71
     3
 72
     5
  7
BIGFONT
  1
{\T0.95;\W1.05263;胴縁納まり}
  0
LINE
  5
308
100
AcDbEntity
  8
1
  6
CONTINUOUS
100
AcDbLine
 10
345.548543818706
 20
-96.4496781159326
 11
421.287204849518
 21
-96.4496781159326
  0
LWPOLYLINE
  5
309
100
AcDbEntity
  8
1
  6
CONTINUOUS
100
AcDbPolyline
 90
        5
 70
     1
 43
0.0
 10
150.928347387778
 20
-123.601640260071
 10
239.403850987202
 20
-123.601640260071
 10
239.403850987202
 20
-153.668301595415
 10
150.928347387778
 20
-153.668301595415
 10
150.928347387778
 20
-123.601640260071
  0
DIMENSION
  5
31A
100
AcDbEntity
  8
3
  6
CONTINUOUS
100
AcDbDimension
  2
*D24
 10
341.587674444342
 20
33.2030989880284
 11
341.587707519531
 21
42.5124702453613
 70
    32
  3
ISO-25_0-333333
100
AcDbAlignedDimension
 13
334.255558793254
 23
21.2030972304938
 14
318.752117365318
 24
33.2030989880284
 50
90.0
100
AcDbRotatedDimension
1001
ACAD
1000
DSTYLE
1002
{
1070
   280
1070
     2
1002
}
  0
MTEXT
  5
31B
100
AcDbEntity
  8
4
  6
CONTINUOUS
100
AcDbMText
 10
266.09850769043
 20
51.5173278808594
 40
8.1
 41
0.0
 11
1.0
 21
0.0
 71
     3
 72
     5
  7
BIGFONT
  1
{\T0.95;\W1.05263;別途工事}
  0
MTEXT
  5
31C
100
AcDbEntity
  8
4
  6
CONTINUOUS
100
AcDbMText
 10
-68.6442367553711
 20
50.9644943237305
 40
8.1
 41
0.0
 11
1.0
 21
0.0
 71
     3
 72
     5
  7
BIGFONT
  1
{\T0.95;\W1.05263;別途工事}
  0
LINE
  5
31D
100
AcDbEntity
  8
1
  6
DASHED
100
AcDbLine
 10
87.3086834160056
 20
39.2032471711617
 11
87.3086834160056
 21
55.2032471711617
  0
LINE
  5
31E
100
AcDbEntity
  8
1
  6
CONTINUOUS
100
AcDbLine
 10
84.1586834160057
 20
54.7657471711617
 11
87.6586834160057
 21
54.7657471711617
  0
LINE
  5
31F
100
AcDbEntity
  8
1
  6
DASHED
100
AcDbLine
 10
84.5086834160056
 20
39.2032471711617
 11
84.5086834160056
 21
55.2032471711617
  0
LWPOLYLINE
  5
320
100
AcDbEntity
  8
1
  6
CONTINUOUS
100
AcDbPolyline
 90
        6
 70
     0
 43
0.0
 10
84.1586834160057
 20
39.2032471711617
 10
84.1586834160057
 20
54.7657471711617
 10
84.5086834160056
 20
55.2032471711617
 10
87.3086834160056
 20
55.2032471711617
 10
87.6586834160057
 20
54.7657471711617
 10
87.6586834160057
 20
39.2032471711617
  0
LWPOLYLINE
  5
321
100
AcDbEntity
  8
1
  6
CONTINUOUS
100
AcDbPolyline
 90
        5
 70
     1
 43
0.0
 10
90.9086834160057
 20
44.7032471711618
 10
80.9086834160057
 20
44.7032471711618
 10
80.9086834160057
 20
45.1032471711616
 10
90.9086834160057
 20
45.1032471711616
 10
90.9086834160057
 20
44.7032471711618
  0
LINE
  5
322
100
AcDbEntity
  8
1
  6
CONTINUOUS
100
AcDbLine
 10
89.4086834160057
 20
38.7032471711617
 11
82.4086834160057
 21
38.7032471711617
  0
LWPOLYLINE
  5
323
100
AcDbEntity
  8
1
  6
CONTINUOUS
100
AcDbPolyline
 90
        4
 70
     0
 43
0.0
 10
89.4086834160057
 20
39.2032471711617
 10
89.4086834160057
 20
38.7032471711617
 42
-0.43214285714287
 10
82.4086834160057
 20
38.7032471711617
 10
82.4086834160057
 20
39.2032471711617
  0
MTEXT
  5
324
100
AcDbEntity
  8
4
  6
CONTINUOUS
100
AcDbMText
 10
21.0069091796875
 20
62.7792053222656
 40
8.1
 41
0.0
 11
1.0
 21
0.0
 71
     9
 72
     5
  7
BIGFONT
  1
{\T0.95;\W1.05263;固定金具}
  0
LINE
  5
325
100
AcDbEntity
  8
4
  6
CONTINUOUS
100
AcDbLine
 10
35.4897308349609
 20
22.4580421447754
 11
22.5069122314453
 21
61.2792053222656
  0
LINE
  5
326
100
AcDbEntity
  8
4
  6
CONTINUOUS
100
AcDbLine
 10
22.5069122314453
 20
61.2792053222656
 11
-17.4493408203125
 21
61.2792053222656
  0
INSERT
  5
327
100
AcDbEntity
  8
4
  6
CONTINUOUS
100
AcDbBlockReference
  2
MARK1_1
 10
35.4897308349609
 20
22.4580421447754
 41
6.0
 42
6.0
 50
108.0
  0
MTEXT
  5
328
100
AcDbEntity
  8
4
  6
CONTINUOUS
100
AcDbMText
 10
-37.8539535522461
 20
-37.7739715576172
 40
8.1
 41
0.0
 11
1.0
 21
0.0
 71
     9
 72
     5
  7
BIGFONT
  1
{\T0.95;\W1.05263;固定金具}
  0
LINE
  5
329
100
AcDbEntity
  8
4
  6
CONTINUOUS
100
AcDbLine
 10
-13.1321868896484
 20
0.947300672531128
 11
-36.3539505004883
 21
-39.2739715576172
  0
LINE
  5
32A
100
AcDbEntity
  8
4
  6
CONTINUOUS
100
AcDbLine
 10
-36.3539505004883
 20
-39.2739715576172
 11
-76.3102035522461
 21
-39.2739715576172
  0
INSERT
  5
32B
100
AcDbEntity
  8
4
  6
CONTINUOUS
100
AcDbBlockReference
  2
MARK1_1
 10
-13.1321868896484
 20
0.947300672531128
 41
6.0
 42
6.0
 50
240.0
  0
MTEXT
  5
32C
100
AcDbEntity
  8
4
  6
CONTINUOUS
100
AcDbMText
 10
359.946502685547
 20
54.9145355224609
 40
8.1
 41
0.0
 11
1.0
 21
0.0
 71
     7
 72
     5
  7
BIGFONT
  1
{\T0.95;\W1.05263;固定金具}
  0
LINE
  5
32D
100
AcDbEntity
  8
4
  6
CONTINUOUS
100
AcDbLine
 10
346.402313232422
 20
19.6717262268066
 11
358.446502685547
 21
53.4145355224609
  0
LINE
  5
32E
100
AcDbEntity
  8
4
  6
CONTINUOUS
100
AcDbLine
 10
358.446502685547
 20
53.4145355224609
 11
398.402740478516
 21
53.4145355224609
  0
INSERT
  5
32F
100
AcDbEntity
  8
4
  6
CONTINUOUS
100
AcDbBlockReference
  2
MARK1_1
 10
346.402313232422
 20
19.6717262268066
 41
6.0
 42
6.0
 50
70.0
  0
ENDSEC
  0
SECTION
  2
OBJECTS
  0
DICTIONARY
  5
C
100
AcDbDictionary
  3
ACAD_GROUP
350
D
  3
ACAD_MLINESTYLE
350
E
  3
ACDBVARIABLEDICTIONARY
350
330
  0
DICTIONARY
  5
D
102
{ACAD_REACTORS
330
C
102
}
100
AcDbDictionary
  0
DICTIONARY
  5
E
102
{ACAD_REACTORS
330
C
102
}
100
AcDbDictionary
  3
STANDARD
350
13
  0
DICTIONARY
  5
330
102
{ACAD_REACTORS
330
C
102
}
330
C
100
AcDbDictionary
  3
SORTENTS
350
331
  0
MLINESTYLE
  5
13
102
{ACAD_REACTORS
330
E
102
}
100
AcDbMlineStyle
  2
STANDARD
 70
     0
  3

 62
   256
 51
90.0
 52
90.0
 71
     2
 49
0.5
 62
   256
  6
BYLAYER
 49
-0.5
 62
   256
  6
BYLAYER
  0
DICTIONARYVAR
  5
331
102
{ACAD_REACTORS
330
330
102
}
100
DictionaryVariables
280
     0
  1
96
  0
ENDSEC
  0
EOF
