  0
SECTION
  2
HEADER
  9
$ACADVER
  1
AC1014
  9
$ACADMAINTVER
 70
     0
  9
$DWGCODEPAGE
  3
ANSI_932
  9
$INSBASE
 10
0.0
 20
0.0
 30
0.0
  9
$EXTMIN
 10
-136.206954956055
 20
-155.651226597503
  9
$EXTMAX
 10
145.866653820452
 20
88.5406210270532
  9
$LIMMIN
 10
-136.206954956055
 20
-155.651226597503
  9
$LIMMAX
 10
145.866653820452
 20
88.5406210270532
  9
$ORTHOMODE
 70
     0
  9
$REGENMODE
 70
     1
  9
$FILLMODE
 70
     1
  9
$QTEXTMODE
 70
     0
  9
$MIRRTEXT
 70
     1
  9
$DRAGMODE
 70
     2
  9
$LTSCALE
 40
1.0
  9
$OSMODE
 70
     0
  9
$ATTMODE
 70
     1
  9
$TEXTSIZE
 40
3.0
  9
$TRACEWID
 40
0.5
  9
$TEXTSTYLE
  7
STANDARD
  9
$CLAYER
  8
0
  9
$CELTYPE
  6
BYLAYER
  9
$CECOLOR
 62
   256
  9
$CELTSCALE
 40
1.0
  9
$DELOBJ
 70
     1
  9
$DISPSILH
 70
     0
  9
$DIMSCALE
 40
1.0
  9
$DIMASZ
 40
3.0
  9
$DIMEXO
 40
1.0
  9
$DIMDLI
 40
5.0
  9
$DIMRND
 40
0.0
  9
$DIMDLE
 40
1.0
  9
$DIMEXE
 40
2.0
  9
$DIMTP
 40
0.0
  9
$DIMTM
 40
0.0
  9
$DIMTXT
 40
2.7
  9
$DIMCEN
 40
2.0
  9
$DIMTSZ
 40
0.0
  9
$DIMTOL
 70
     0
  9
$DIMLIM
 70
     0
  9
$DIMTIH
 70
     0
  9
$DIMTOH
 70
     0
  9
$DIMSE1
 70
     0
  9
$DIMSE2
 70
     0
  9
$DIMTAD
 70
     1
  9
$DIMZIN
 70
     8
  9
$DIMBLK
  1

  9
$DIMASO
 70
     1
  9
$DIMSHO
 70
     1
  9
$DIMPOST
  1

  9
$DIMAPOST
  1

  9
$DIMALT
 70
     0
  9
$DIMALTD
 70
     4
  9
$DIMALTF
 40
25.4
  9
$DIMLFAC
 40
1.0
  9
$DIMTOFL
 70
     1
  9
$DIMTVP
 40
1.0
  9
$DIMTIX
 70
     0
  9
$DIMSOXD
 70
     0
  9
$DIMSAH
 70
     0
  9
$DIMBLK1
  1

  9
$DIMBLK2
  1

  9
$DIMSTYLE
  2
ISO-25
  9
$DIMCLRD
 70
     0
  9
$DIMCLRE
 70
     0
  9
$DIMCLRT
 70
     0
  9
$DIMTFAC
 40
1.0
  9
$DIMGAP
 40
0.5
  9
$DIMJUST
 70
     0
  9
$DIMSD1
 70
     0
  9
$DIMSD2
 70
     0
  9
$DIMTOLJ
 70
     1
  9
$DIMTZIN
 70
     1
  9
$DIMALTZ
 70
     0
  9
$DIMALTTZ
 70
     0
  9
$DIMFIT
 70
     3
  9
$DIMUPT
 70
     0
  9
$DIMUNIT
 70
     2
  9
$DIMDEC
 70
     1
  9
$DIMTDEC
 70
     3
  9
$DIMALTU
 70
     8
  9
$DIMALTTD
 70
     4
  9
$DIMTXSTY
  7
STANDARD
  9
$DIMAUNIT
 70
     0
  9
$LUNITS
 70
     2
  9
$LUPREC
 70
     4
  9
$AXISMODE
 70
     0
  9
$AXISUNIT
 10
0.0
 20
0.0
  9
$SKETCHINC
 40
1.0
  9
$FILLETRAD
 40
0.0
  9
$AUNITS
 70
     0
  9
$AUPREC
 70
     0
  9
$MENU
  1
.
  9
$ELEVATION
 40
0.0
  9
$PELEVATION
 40
0.0
  9
$THICKNESS
 40
0.0
  9
$LIMCHECK
 70
     0
  9
$BLIPMODE
 70
     1
  9
$CHAMFERA
 40
0.0
  9
$CHAMFERB
 40
0.0
  9
$CHAMFERC
 40
0.0
  9
$CHAMFERD
 40
0.0
  9
$SKPOLY
 70
     0
  9
$TDCREATE
 40
2454821.69221065
  9
$TDUPDATE
 40
2454821.69221065
  9
$TDINDWG
 40
0.0
  9
$TDUSRTIMER
 40
0.0
  9
$USRTIMER
 70
     1
  9
$ANGBASE
 50
0.0
  9
$ANGDIR
 70
     0
  9
$PDMODE
 70
     0
  9
$PDSIZE
 40
0.0
  9
$PLINEWID
 40
0.0
  9
$COORDS
 70
     0
  9
$SPLFRAME
 70
     0
  9
$SPLINETYPE
 70
     6
  9
$SPLINESEGS
 70
     8
  9
$ATTDIA
 70
     0
  9
$ATTREQ
 70
     1
  9
$HANDLING
 70
     1
  9
$HANDSEED
  5
15D
  9
$SURFTAB1
 70
     6
  9
$SURFTAB2
 70
     6
  9
$SURFTYPE
 70
     6
  9
$SURFU
 70
     6
  9
$SURFV
 70
     6
  9
$UCSNAME
  2

  9
$UCSORG
 10
0.0
 20
0.0
 30
0.0
  9
$UCSXDIR
 10
1.0
 20
0.0
 30
0.0
  9
$UCSYDIR
 10
0.0
 20
1.0
 30
0.0
  9
$PUCSNAME
  2

  9
$PUCSORG
 10
0.0
 20
1.0
 30
0.0
  9
$PUCSXDIR
 10
1.0
 20
0.0
 30
0.0
  9
$PUCSYDIR
 10
0.0
 20
1.0
 30
0.0
  9
$USERI1
 70
     0
  9
$USERI2
 70
     0
  9
$USERI3
 70
     0
  9
$USERI4
 70
     0
  9
$USERI5
 70
     0
  9
$USERR1
 40
0.0
  9
$USERR2
 40
0.0
  9
$USERR3
 40
0.0
  9
$USERR4
 40
0.0
  9
$USERR5
 40
0.0
  9
$WORLDVIEW
 70
     1
  9
$SHADEDGE
 70
     3
  9
$SHADEDIF
 70
    70
  9
$TILEMODE
 70
     1
  9
$MAXACTVP
 70
    16
  9
$PINSBASE
 10
0.0
 20
1.0
 30
0.0
  9
$PLIMCHECK
 70
     0
  9
$PEXTMIN
 10
1.00000000000000E+020
 20
1.00000000000000E+020
 30
1.00000000000000E+020
  9
$PEXTMAX
 10
-1.00000000000000E+020
 20
-1.00000000000000E+020
 30
-1.00000000000000E+020
  9
$PLIMMIN
 10
-136.206954956055
 20
-155.651226597503
  9
$PLIMMAX
 10
145.866653820452
 20
88.5406210270532
  9
$UNITMODE
 70
     0
  9
$VISRETAIN
 70
     0
  9
$PLINEGEN
 70
     0
  9
$PSLTSCALE
 70
     0
  9
$TREEDEPTH
 70
  3020
  9
$PICKSTYLE
 70
     1
  9
$CMLSTYLE
  2
STANDARD
  9
$CMLJUST
 70
     0
  9
$CMLSCALE
 40
1.0
  9
$PROXYGRAPHICS
 70
     1
  9
$MEASUREMENT
 70
     1
  0
ENDSEC
  0
SECTION
  2
CLASSES
  0
CLASS
  1
LWPOLYLINE
  2
AcDbPolyline
  3
"AutoCAD"
 90
        0
280
     0
281
     1
  0
CLASS
  1
DICTIONARYVAR
  2
AcDbDictionaryVar
  3
"AutoCAD"
 90
        0
280
     0
281
     1
  0
CLASS
  1
HATCH
  2
AcDbHatch
  3
"AutoCAD"
 90
        0
280
     0
281
     1
  0
ENDSEC
  0
SECTION
  2
TABLES
  0
TABLE
  2
VPORT
  5
8
100
AcDbSymbolTable
 70
     1
  0
VPORT
  5
150
100
AcDbSymbolTableRecord
100
AcDbViewportTableRecord
  2
*ACTIVE
 70
     0
 10
0.0
 20
0.0
 11
1.0
 21
1.0
 12
4.82984943219881
 22
-33.5553027852249
 13
0.0
 23
0.0
 14
0.0
 24
0.0
 15
0.0
 25
0.0
 16
0.0
 26
0.0
 36
1.0
 17
0.0
 27
0.0
 37
0.0
 40
244.191847624556
 41
1.5
 42
50.0
 43
0.0
 44
0.0
 50
0.0
 51
0.0
 71
     0
 72
   100
 73
     1
 74
     1
 75
     0
 76
     0
 77
     0
 78
     0
  0
ENDTAB
  0
TABLE
  2
LTYPE
  5
5
100
AcDbSymbolTable
 70
    20
  0
LTYPE
  5
151
100
AcDbSymbolTableRecord
100
AcDbLinetypeTableRecord
  2
BYBLOCK
 70
     0
  3

 72
    65
 73
     0
 40
0.0
  0
LTYPE
  5
152
100
AcDbSymbolTableRecord
100
AcDbLinetypeTableRecord
  2
BYLAYER
 70
     0
  3

 72
    65
 73
     0
 40
0.0
  0
LTYPE
  5
153
100
AcDbSymbolTableRecord
100
AcDbLinetypeTableRecord
  2
CONTINUOUS
 70
    64
  3
solid line
 72
    65
 73
     0
 40
0.0
  0
LTYPE
  5
154
100
AcDbSymbolTableRecord
100
AcDbLinetypeTableRecord
  2
DASHED
 70
    64
  3
-- -- -- -- -- -- -- -- -- -- 
 72
    65
 73
     2
 40
9.0
 49
6.0
 74
     0
 49
-3.0
 74
     0
  0
LTYPE
  5
155
100
AcDbSymbolTableRecord
100
AcDbLinetypeTableRecord
  2
CENTER
 70
    64
  3
--- - --- - --- - --- - --- - 
 72
    65
 73
     4
 40
18.0
 49
9.0
 74
     0
 49
-3.0
 74
     0
 49
3.0
 74
     0
 49
-3.0
 74
     0
  0
ENDTAB
  0
TABLE
  2
LAYER
  5
2
100
AcDbSymbolTable
 70
    20
  0
LAYER
  5
156
100
AcDbSymbolTableRecord
100
AcDbLayerTableRecord
  2
0
 70
    64
 62
     7
  6
CONTINUOUS
  0
LAYER
  5
25
100
AcDbSymbolTableRecord
100
AcDbLayerTableRecord
  2
1
 70
    64
 62
     7
  6
CONTINUOUS
  0
LAYER
  5
82
100
AcDbSymbolTableRecord
100
AcDbLayerTableRecord
  2
3
 70
    64
 62
     7
  6
CONTINUOUS
  0
LAYER
  5
F6
100
AcDbSymbolTableRecord
100
AcDbLayerTableRecord
  2
4
 70
    64
 62
     7
  6
CONTINUOUS
  0
LAYER
  5
157
100
AcDbSymbolTableRecord
100
AcDbLayerTableRecord
  2
DEFPOINTS
 70
     0
 62
    -7
  6
CONTINUOUS
  0
ENDTAB
  0
TABLE
  2
STYLE
  5
3
100
AcDbSymbolTable
 70
     4
  0
STYLE
  5
158
100
AcDbSymbolTableRecord
100
AcDbTextStyleTableRecord
  2
STANDARD
 70
    64
 40
0.0
 41
1.0
 50
0.0
 71
     0
 42
9.0
  3
monotxt
  4

  0
STYLE
  5
159
100
AcDbSymbolTableRecord
100
AcDbTextStyleTableRecord
  2
BIGFONT
 70
    64
 40
0.0
 41
1.0
 50
0.0
 71
     0
 42
9.0
  3
monotxt
  4
bigfont
  0
ENDTAB
  0
TABLE
  2
VIEW
  5
6
100
AcDbSymbolTable
 70
     0
  0
ENDTAB
  0
TABLE
  2
UCS
  5
7
100
AcDbSymbolTable
 70
     0
  0
ENDTAB
  0
TABLE
  2
APPID
  5
9
100
AcDbSymbolTable
 70
     1
  0
APPID
  5
15A
100
AcDbSymbolTableRecord
100
AcDbRegAppTableRecord
  2
ACAD
 70
     0
  0
ENDTAB
  0
TABLE
  2
DIMSTYLE
  5
A
100
AcDbSymbolTable
 70
     8
  0
DIMSTYLE
105
15B
100
AcDbSymbolTableRecord
100
AcDbDimStyleTableRecord
  2
ISO-25
 70
     0
  3

  4

  5

  6

  7

 40
1.0
 41
3.0
 42
1.0
 43
5.0
 44
2.0
 45
0.0
 46
1.0
 47
0.0
 48
0.0
140
2.7
141
2.0
142
0.0
143
25.4
144
1.0
145
1.0
146
1.0
147
0.5
 71
     0
 72
     0
 73
     0
 74
     0
 75
     0
 76
     0
 77
     1
 78
     8
170
     0
171
     0
172
     1
173
     0
174
     0
175
     0
176
     0
177
     0
178
     0
270
     2
271
     1
272
     3
273
     8
274
     4
340
158
275
     0
280
     0
281
     0
282
     0
283
     1
284
     1
285
     0
286
     0
287
     3
288
     0
  0
DIMSTYLE
105
15C
100
AcDbSymbolTableRecord
100
AcDbDimStyleTableRecord
  2
ISO-25_0-333333
 70
     0
  3

  4

  5

  6

  7

 40
1.0
 41
9.0
 42
3.0
 43
15.0
 44
6.0
 45
0.0
 46
3.0
 47
0.0
 48
0.0
140
8.1
141
6.0
142
0.0
143
25.4
144
1.0
145
1.0
146
1.0
147
1.5
 71
     0
 72
     0
 73
     0
 74
     0
 75
     0
 76
     0
 77
     1
 78
     8
170
     0
171
     0
172
     1
173
     0
174
     0
175
     0
176
     0
177
     0
178
     0
270
     2
271
     1
272
     3
273
     8
274
     4
340
158
275
     0
280
     0
281
     0
282
     0
283
     1
284
     1
285
     0
286
     0
287
     3
288
     0
  0
ENDTAB
  0
TABLE
  2
BLOCK_RECORD
  5
1
100
AcDbSymbolTable
 70
     2
  0
BLOCK_RECORD
  5
20
100
AcDbSymbolTableRecord
100
AcDbBlockTableRecord
  2
*MODEL_SPACE
  0
BLOCK_RECORD
  5
22
100
AcDbSymbolTableRecord
100
AcDbBlockTableRecord
  2
*PAPER_SPACE
  0
BLOCK_RECORD
  5
FA
100
AcDbSymbolTableRecord
100
AcDbBlockTableRecord
  2
MARK1_1
  0
BLOCK_RECORD
  5
95
100
AcDbSymbolTableRecord
100
AcDbBlockTableRecord
  2
*D1
  0
BLOCK_RECORD
  5
A5
100
AcDbSymbolTableRecord
100
AcDbBlockTableRecord
  2
*D2
  0
BLOCK_RECORD
  5
B5
100
AcDbSymbolTableRecord
100
AcDbBlockTableRecord
  2
*D3
  0
BLOCK_RECORD
  5
C5
100
AcDbSymbolTableRecord
100
AcDbBlockTableRecord
  2
*D4
  0
BLOCK_RECORD
  5
D7
100
AcDbSymbolTableRecord
100
AcDbBlockTableRecord
  2
*D5
  0
BLOCK_RECORD
  5
E5
100
AcDbSymbolTableRecord
100
AcDbBlockTableRecord
  2
*D6
  0
BLOCK_RECORD
  5
113
100
AcDbSymbolTableRecord
100
AcDbBlockTableRecord
  2
*D7
  0
BLOCK_RECORD
  5
121
100
AcDbSymbolTableRecord
100
AcDbBlockTableRecord
  2
*D8
  0
BLOCK_RECORD
  5
131
100
AcDbSymbolTableRecord
100
AcDbBlockTableRecord
  2
*D9
  0
BLOCK_RECORD
  5
27
100
AcDbSymbolTableRecord
100
AcDbBlockTableRecord
  2
M4テックス13_0001
  0
BLOCK_RECORD
  5
6C
100
AcDbSymbolTableRecord
100
AcDbBlockTableRecord
  2
あ_0002
  0
ENDTAB
  0
ENDSEC
  0
SECTION
  2
BLOCKS
  0
BLOCK
  5
21
100
AcDbEntity
  8
0
100
AcDbBlockBegin
  2
*MODEL_SPACE
 70
     0
 10
0.0
 20
0.0
 30
0.0
  3
*MODEL_SPACE
  1

  0
ENDBLK
  5
14A
100
AcDbEntity
  8
0
100
AcDbBlockEnd
  0
BLOCK
  5
23
100
AcDbEntity
 67
     1
  8
0
100
AcDbBlockBegin
  2
*PAPER_SPACE
 70
     0
 10
0.0
 20
0.0
 30
0.0
  3
*PAPER_SPACE
  1

  0
ENDBLK
  5
14B
100
AcDbEntity
 67
     1
  8
0
100
AcDbBlockEnd
  0
BLOCK
  5
14C
100
AcDbEntity
  8
0
100
AcDbBlockBegin
  2
MARK1_1
 70
    64
 10
0.0
 20
0.0
  0
LINE
  5
14D
100
AcDbEntity
  8
0
  6
CONTINUOUS
 62
     0
100
AcDbLine
 10
1.0
 20
-0.25
 11
0.0
 21
0.0
  0
LINE
  5
14E
100
AcDbEntity
  8
0
  6
CONTINUOUS
 62
     0
100
AcDbLine
 10
0.0
 20
0.0
 11
1.0
 21
0.25
  0
ENDBLK
  5
14F
100
AcDbEntity
  8
0
100
AcDbBlockEnd
  0
BLOCK
  5
96
100
AcDbEntity
  8
0
100
AcDbBlockBegin
  2
*D1
 70
    65
 10
0.0
 20
0.0
  0
LINE
  5
97
100
AcDbEntity
  8
0
  6
CONTINUOUS
100
AcDbLine
 10
-104.077850341797
 20
0.250148177146912
 11
-104.077850341797
 21
-7.24992895126343
  0
CIRCLE
  5
98
100
AcDbEntity
  8
0
  6
CONTINUOUS
100
AcDbCircle
 10
-104.077854850285
 20
0.250146993293837
 40
1.125
  0
CIRCLE
  5
99
100
AcDbEntity
  8
0
  6
CONTINUOUS
100
AcDbCircle
 10
-104.077854850285
 20
0.250146993293837
 40
0.5625
  0
LINE
  5
9A
100
AcDbEntity
  8
0
  6
CONTINUOUS
100
AcDbLine
 10
-104.077850341797
 20
-14.7500019073486
 11
-104.077850341797
 21
-7.24992895126343
  0
CIRCLE
  5
9B
100
AcDbEntity
  8
0
  6
CONTINUOUS
100
AcDbCircle
 10
-104.077854850285
 20
-14.7500017798995
 40
1.125
  0
CIRCLE
  5
9C
100
AcDbEntity
  8
0
  6
CONTINUOUS
100
AcDbCircle
 10
-104.077854850285
 20
-14.7500017798995
 40
0.5625
  0
LINE
  5
9D
100
AcDbEntity
  8
0
  6
CONTINUOUS
100
AcDbLine
 10
-52.2941932678223
 20
0.250148177146912
 11
-110.077850341797
 21
0.250148177146912
  0
LINE
  5
9E
100
AcDbEntity
  8
0
  6
CONTINUOUS
100
AcDbLine
 10
-49.2941932678223
 20
-14.7500019073486
 11
-110.077850341797
 21
-14.7500019073486
  0
MTEXT
  5
9F
100
AcDbEntity
  8
0
  6
CONTINUOUS
100
AcDbMText
 10
-105.577847220891
 20
-12.0593050635909
 40
8.1
 41
0.0
 11
6.12323399573677E-017
 21
1.0
 71
     7
 72
     5
  7
STANDARD
  1
{\T1.03125;\W0.666667;15}
 73
     1
 44
1.0
  0
POINT
  5
A0
100
AcDbEntity
  8
DEFPOINTS
  6
BYBLOCK
 62
     0
100
AcDbPoint
 10
-47.7941879405777
 20
0.250145949594238
  0
POINT
  5
A1
100
AcDbEntity
  8
DEFPOINTS
  6
BYBLOCK
 62
     0
100
AcDbPoint
 10
-44.7941879405777
 20
-14.7500039910737
  0
POINT
  5
A2
100
AcDbEntity
  8
DEFPOINTS
  6
BYBLOCK
 62
     0
100
AcDbPoint
 10
-104.077852643947
 20
-14.7500039910737
  0
ENDBLK
  5
A3
100
AcDbEntity
  8
3
100
AcDbBlockEnd
  0
BLOCK
  5
A6
100
AcDbEntity
  8
0
100
AcDbBlockBegin
  2
*D2
 70
    65
 10
0.0
 20
0.0
  0
LINE
  5
A7
100
AcDbEntity
  8
0
  6
CONTINUOUS
100
AcDbLine
 10
-104.077850341797
 20
-52.7500038146973
 11
-104.077850341797
 21
-33.75
  0
CIRCLE
  5
A8
100
AcDbEntity
  8
0
  6
CONTINUOUS
100
AcDbCircle
 10
-104.077854850285
 20
-52.7500041640853
 40
1.125
  0
CIRCLE
  5
A9
100
AcDbEntity
  8
0
  6
CONTINUOUS
100
AcDbCircle
 10
-104.077854850285
 20
-52.7500041640853
 40
0.5625
  0
LINE
  5
AA
100
AcDbEntity
  8
0
  6
CONTINUOUS
100
AcDbLine
 10
-104.077850341797
 20
-14.7500019073486
 11
-104.077850341797
 21
-33.75
  0
CIRCLE
  5
AB
100
AcDbEntity
  8
0
  6
CONTINUOUS
100
AcDbCircle
 10
-104.077854850285
 20
-14.7500017798995
 40
1.125
  0
CIRCLE
  5
AC
100
AcDbEntity
  8
0
  6
CONTINUOUS
100
AcDbCircle
 10
-104.077854850285
 20
-14.7500017798995
 40
0.5625
  0
LINE
  5
AD
100
AcDbEntity
  8
0
  6
CONTINUOUS
100
AcDbLine
 10
-71.9942169189453
 20
-52.7500038146973
 11
-110.077850341797
 21
-52.7500038146973
  0
LINE
  5
AE
100
AcDbEntity
  8
0
  6
CONTINUOUS
100
AcDbLine
 10
-83.5528030395508
 20
-14.7500019073486
 11
-110.077850341797
 21
-14.7500019073486
  0
MTEXT
  5
AF
100
AcDbEntity
  8
0
  6
CONTINUOUS
100
AcDbMText
 10
-105.577854850285
 20
-38.559377542839
 40
8.1
 41
0.0
 11
6.12323399573677E-017
 21
1.0
 71
     7
 72
     5
  7
STANDARD
  1
{\T1.03125;\W0.666667;38}
 73
     1
 44
1.0
  0
POINT
  5
B0
100
AcDbEntity
  8
DEFPOINTS
  6
BYBLOCK
 62
     0
100
AcDbPoint
 10
-67.4941879405778
 20
-52.7500039910738
  0
POINT
  5
B1
100
AcDbEntity
  8
DEFPOINTS
  6
BYBLOCK
 62
     0
100
AcDbPoint
 10
-79.0528131212832
 20
-14.7500022335392
  0
POINT
  5
B2
100
AcDbEntity
  8
DEFPOINTS
  6
BYBLOCK
 62
     0
100
AcDbPoint
 10
-104.077853282742
 20
-14.7500022335392
  0
ENDBLK
  5
B3
100
AcDbEntity
  8
3
100
AcDbBlockEnd
  0
BLOCK
  5
B6
100
AcDbEntity
  8
0
100
AcDbBlockBegin
  2
*D3
 70
    65
 10
0.0
 20
0.0
  0
LINE
  5
B7
100
AcDbEntity
  8
0
  6
CONTINUOUS
100
AcDbLine
 10
-86.9752807617188
 20
-52.7500038146973
 11
-86.9752807617188
 21
-35.25
  0
CIRCLE
  5
B8
100
AcDbEntity
  8
0
  6
CONTINUOUS
100
AcDbCircle
 10
-86.9753157877853
 20
-52.7500041640853
 40
1.125
  0
CIRCLE
  5
B9
100
AcDbEntity
  8
0
  6
CONTINUOUS
100
AcDbCircle
 10
-86.9753157877853
 20
-52.7500041640853
 40
0.5625
  0
LINE
  5
BA
100
AcDbEntity
  8
0
  6
CONTINUOUS
100
AcDbLine
 10
-86.9752807617188
 20
-17.7500019073486
 11
-86.9752807617188
 21
-35.25
  0
CIRCLE
  5
BB
100
AcDbEntity
  8
0
  6
CONTINUOUS
100
AcDbCircle
 10
-86.9753157877853
 20
-17.7500017798995
 40
1.125
  0
CIRCLE
  5
BC
100
AcDbEntity
  8
0
  6
CONTINUOUS
100
AcDbCircle
 10
-86.9753157877853
 20
-17.7500017798995
 40
0.5625
  0
LINE
  5
BD
100
AcDbEntity
  8
0
  6
CONTINUOUS
100
AcDbLine
 10
-76.4942169189453
 20
-52.7500038146973
 11
-92.9752807617188
 21
-52.7500038146973
  0
LINE
  5
BE
100
AcDbEntity
  8
0
  6
CONTINUOUS
100
AcDbLine
 10
-72.2941970825195
 20
-17.7500019073486
 11
-92.9752807617188
 21
-17.7500019073486
  0
MTEXT
  5
BF
100
AcDbEntity
  8
0
  6
CONTINUOUS
100
AcDbMText
 10
-88.4753081583908
 20
-40.0593813575362
 40
8.1
 41
0.0
 11
6.12323399573677E-017
 21
1.0
 71
     7
 72
     5
  7
STANDARD
  1
{\T1.03125;\W0.666667;35}
 73
     1
 44
1.0
  0
POINT
  5
C0
100
AcDbEntity
  8
DEFPOINTS
  6
BYBLOCK
 62
     0
100
AcDbPoint
 10
-71.9941877498429
 20
-52.7500039918762
  0
POINT
  5
C1
100
AcDbEntity
  8
DEFPOINTS
  6
BYBLOCK
 62
     0
100
AcDbPoint
 10
-67.7941879405777
 20
-17.7500039910737
  0
POINT
  5
C2
100
AcDbEntity
  8
DEFPOINTS
  6
BYBLOCK
 62
     0
100
AcDbPoint
 10
-86.9753132729007
 20
-17.7500039910737
  0
ENDBLK
  5
C3
100
AcDbEntity
  8
3
100
AcDbBlockEnd
  0
BLOCK
  5
C6
100
AcDbEntity
  8
0
100
AcDbBlockBegin
  2
*D4
 70
    65
 10
0.0
 20
0.0
  0
LINE
  5
C7
100
AcDbEntity
  8
0
  6
CONTINUOUS
100
AcDbLine
 10
-86.9752807617188
 20
-17.7500019073486
 11
-86.9752807617188
 21
-20.7500019073486
  0
CIRCLE
  5
C8
100
AcDbEntity
  8
0
  6
CONTINUOUS
100
AcDbCircle
 10
-86.9753157877853
 20
-17.7500017798995
 40
1.125
  0
CIRCLE
  5
C9
100
AcDbEntity
  8
0
  6
CONTINUOUS
100
AcDbCircle
 10
-86.9753157877853
 20
-17.7500017798995
 40
0.5625
  0
LINE
  5
CA
100
AcDbEntity
  8
0
  6
CONTINUOUS
100
AcDbLine
 10
-86.9752807617188
 20
-17.7500019073486
 11
-86.9752807617188
 21
-16.2500019073486
  0
LINE
  5
CB
100
AcDbEntity
  8
0
  6
CONTINUOUS
100
AcDbLine
 10
-86.9752807617188
 20
-14.7500019073486
 11
-86.9752807617188
 21
-16.2500019073486
  0
LINE
  5
CC
100
AcDbEntity
  8
0
  6
CONTINUOUS
100
AcDbLine
 10
-86.9752807617188
 20
-14.7500019073486
 11
-86.9752807617188
 21
-4.70000171661377
  0
CIRCLE
  5
CD
100
AcDbEntity
  8
0
  6
CONTINUOUS
100
AcDbCircle
 10
-86.9753157877853
 20
-14.7500017798995
 40
1.125
  0
CIRCLE
  5
CE
100
AcDbEntity
  8
0
  6
CONTINUOUS
100
AcDbCircle
 10
-86.9753157877853
 20
-14.7500017798995
 40
0.5625
  0
LINE
  5
CF
100
AcDbEntity
  8
0
  6
CONTINUOUS
100
AcDbLine
 10
-76.7941970825195
 20
-17.7500019073486
 11
-92.9752807617188
 21
-17.7500019073486
  0
LINE
  5
D0
100
AcDbEntity
  8
0
  6
CONTINUOUS
100
AcDbLine
 10
-75.5045852661133
 20
-14.7500019073486
 11
-92.9752807617188
 21
-14.7500019073486
  0
MTEXT
  5
D1
100
AcDbEntity
  8
0
  6
CONTINUOUS
100
AcDbMText
 10
-88.4753081583908
 20
-10.2500017798995
 40
8.1
 41
0.0
 11
6.12323399573677E-017
 21
1.0
 71
     7
 72
     5
  7
STANDARD
  1
{\T1.03125;\W0.666667;3}
 73
     1
 44
1.0
  0
POINT
  5
D2
100
AcDbEntity
  8
DEFPOINTS
  6
BYBLOCK
 62
     0
100
AcDbPoint
 10
-72.2941879405777
 20
-17.7500022335392
  0
POINT
  5
D3
100
AcDbEntity
  8
DEFPOINTS
  6
BYBLOCK
 62
     0
100
AcDbPoint
 10
-71.0045589990053
 20
-14.7500022335392
  0
POINT
  5
D4
100
AcDbEntity
  8
DEFPOINTS
  6
BYBLOCK
 62
     0
100
AcDbPoint
 10
-86.9753135814469
 20
-14.7500022335392
  0
ENDBLK
  5
D5
100
AcDbEntity
  8
3
100
AcDbBlockEnd
  0
BLOCK
  5
D8
100
AcDbEntity
  8
0
100
AcDbBlockBegin
  2
*D5
 70
    65
 10
0.0
 20
0.0
  0
LINE
  5
D9
100
AcDbEntity
  8
0
  6
CONTINUOUS
100
AcDbLine
 10
42.2058067321777
 20
72.2583312988281
 11
-7.79419708251953
 21
72.2583312988281
  0
CIRCLE
  5
DA
100
AcDbEntity
  8
0
  6
CONTINUOUS
100
AcDbCircle
 10
42.2058136677811
 20
72.2583333336259
 40
1.125
  0
CIRCLE
  5
DB
100
AcDbEntity
  8
0
  6
CONTINUOUS
100
AcDbCircle
 10
42.2058136677811
 20
72.2583333336259
 40
0.5625
  0
LINE
  5
DC
100
AcDbEntity
  8
0
  6
CONTINUOUS
100
AcDbLine
 10
-57.7941932678223
 20
72.2583312988281
 11
-7.79419708251953
 21
72.2583312988281
  0
CIRCLE
  5
DD
100
AcDbEntity
  8
0
  6
CONTINUOUS
100
AcDbCircle
 10
-57.7941863322189
 20
72.2583333336259
 40
1.125
  0
CIRCLE
  5
DE
100
AcDbEntity
  8
0
  6
CONTINUOUS
100
AcDbCircle
 10
-57.7941863322189
 20
72.2583333336259
 40
0.5625
  0
MTEXT
  5
DF
100
AcDbEntity
  8
0
  6
CONTINUOUS
100
AcDbMText
 10
-15.3879382395675
 20
73.7583333336259
 40
8.1
 41
0.0
 11
1.0
 21
0.0
 71
     7
 72
     5
  7
STANDARD
  1
{\T1.03125;\W0.666667;100}
 73
     1
 44
1.0
  0
POINT
  5
E0
100
AcDbEntity
  8
DEFPOINTS
  6
BYBLOCK
 62
     0
100
AcDbPoint
 10
42.2058120594223
 20
76.0310887123253
  0
POINT
  5
E1
100
AcDbEntity
  8
DEFPOINTS
  6
BYBLOCK
 62
     0
100
AcDbPoint
 10
-57.7941879405777
 20
71.1803991501971
  0
POINT
  5
E2
100
AcDbEntity
  8
DEFPOINTS
  6
BYBLOCK
 62
     0
100
AcDbPoint
 10
-57.7941879405777
 20
72.2583301640034
  0
ENDBLK
  5
E3
100
AcDbEntity
  8
3
100
AcDbBlockEnd
  0
BLOCK
  5
E6
100
AcDbEntity
  8
0
100
AcDbBlockBegin
  2
*D6
 70
    65
 10
0.0
 20
0.0
  0
LINE
  5
E7
100
AcDbEntity
  8
0
  6
CONTINUOUS
100
AcDbLine
 10
-57.7941932678223
 20
33.452808380127
 11
-62.7941932678223
 21
33.452808380127
  0
CIRCLE
  5
E8
100
AcDbEntity
  8
0
  6
CONTINUOUS
100
AcDbCircle
 10
-57.7941863322189
 20
33.452814229622
 40
1.125
  0
CIRCLE
  5
E9
100
AcDbEntity
  8
0
  6
CONTINUOUS
100
AcDbCircle
 10
-57.7941863322189
 20
33.452814229622
 40
0.5625
  0
LINE
  5
EA
100
AcDbEntity
  8
0
  6
CONTINUOUS
100
AcDbLine
 10
-67.7941970825195
 20
33.452808380127
 11
-62.7941932678223
 21
33.452808380127
  0
CIRCLE
  5
EB
100
AcDbEntity
  8
0
  6
CONTINUOUS
100
AcDbCircle
 10
-67.7941863322189
 20
33.452814229622
 40
1.125
  0
CIRCLE
  5
EC
100
AcDbEntity
  8
0
  6
CONTINUOUS
100
AcDbCircle
 10
-67.7941863322189
 20
33.452814229622
 40
0.5625
  0
LINE
  5
ED
100
AcDbEntity
  8
0
  6
CONTINUOUS
100
AcDbLine
 10
-67.7941970825195
 20
33.452808380127
 11
-83.4129104614258
 21
33.452808380127
  0
LINE
  5
EE
100
AcDbEntity
  8
0
  6
CONTINUOUS
100
AcDbLine
 10
-67.7941970825195
 20
-13.5134134292603
 11
-67.7941970825195
 21
39.452808380127
  0
MTEXT
  5
EF
100
AcDbEntity
  8
0
  6
CONTINUOUS
100
AcDbMText
 10
-81.9129378580978
 20
34.9528218590165
 40
8.1
 41
0.0
 11
1.0
 21
0.0
 71
     7
 72
     5
  7
STANDARD
  1
{\T1.03125;\W0.666667;10}
 73
     1
 44
1.0
  0
POINT
  5
F0
100
AcDbEntity
  8
DEFPOINTS
  6
BYBLOCK
 62
     0
100
AcDbPoint
 10
-57.7941879405777
 20
35.4739343178648
  0
POINT
  5
F1
100
AcDbEntity
  8
DEFPOINTS
  6
BYBLOCK
 62
     0
100
AcDbPoint
 10
-67.7941879405777
 20
-18.013414778154
  0
POINT
  5
F2
100
AcDbEntity
  8
DEFPOINTS
  6
BYBLOCK
 62
     0
100
AcDbPoint
 10
-67.7941879405777
 20
33.452813666978
  0
ENDBLK
  5
F3
100
AcDbEntity
  8
3
100
AcDbBlockEnd
  0
BLOCK
  5
114
100
AcDbEntity
  8
0
100
AcDbBlockBegin
  2
*D7
 70
    65
 10
0.0
 20
0.0
  0
LINE
  5
115
100
AcDbEntity
  8
0
  6
CONTINUOUS
100
AcDbLine
 10
97.0184705857042
 20
-49.7500039910738
 11
97.0184705857042
 21
-51.2500036874347
  0
LINE
  5
116
100
AcDbEntity
  8
0
  6
CONTINUOUS
100
AcDbLine
 10
97.0184705857042
 20
-52.7500039910738
 11
97.0184705857042
 21
-51.2500041638987
  0
LINE
  5
117
100
AcDbEntity
  8
0
  6
CONTINUOUS
100
AcDbLine
 10
97.0184705857042
 20
-52.7500039910738
 11
97.0184705857042
 21
-62.800004354848
  0
CIRCLE
  5
118
100
AcDbEntity
  8
0
  6
CONTINUOUS
100
AcDbCircle
 10
97.0184705857042
 20
-52.7500039910738
 40
1.125
  0
CIRCLE
  5
119
100
AcDbEntity
  8
0
  6
CONTINUOUS
100
AcDbCircle
 10
97.0184705857042
 20
-52.7500039910738
 40
0.5625
  0
LINE
  5
11A
100
AcDbEntity
  8
0
  6
CONTINUOUS
100
AcDbLine
 10
-61.0805122950922
 20
-52.7500039910738
 11
103.018446926621
 21
-52.7500039910738
  0
MTEXT
  5
11B
100
AcDbEntity
  8
0
  6
CONTINUOUS
100
AcDbMText
 10
95.5184722303152
 20
-61.3000043548202
 40
8.1
 41
0.0
 11
6.12323399573677E-017
 21
1.0
 71
     7
 72
     5
  7
STANDARD
  1
{\T1.03125;\W0.666667;3}
 73
     1
 44
1.0
  0
POINT
  5
11C
100
AcDbEntity
  8
DEFPOINTS
  6
BYBLOCK
 62
     0
100
AcDbPoint
 10
66.9058120594222
 20
-49.7500039910738
  0
POINT
  5
11D
100
AcDbEntity
  8
DEFPOINTS
  6
BYBLOCK
 62
     0
100
AcDbPoint
 10
-65.5805232856088
 20
-52.7500039910738
  0
POINT
  5
11E
100
AcDbEntity
  8
DEFPOINTS
  6
BYBLOCK
 62
     0
100
AcDbPoint
 10
97.0184705857042
 20
-52.7500039910738
  0
ENDBLK
  5
11F
100
AcDbEntity
  8
3
100
AcDbBlockEnd
  0
BLOCK
  5
122
100
AcDbEntity
  8
0
100
AcDbBlockBegin
  2
*D8
 70
    65
 10
0.0
 20
0.0
  0
LINE
  5
123
100
AcDbEntity
  8
0
  6
CONTINUOUS
100
AcDbLine
 10
97.0184705857042
 20
-49.7500039910738
 11
97.0184705857042
 21
-34.7500039910738
  0
CIRCLE
  5
124
100
AcDbEntity
  8
0
  6
CONTINUOUS
100
AcDbCircle
 10
97.0184705857042
 20
-49.7500039910738
 40
1.125
  0
CIRCLE
  5
125
100
AcDbEntity
  8
0
  6
CONTINUOUS
100
AcDbCircle
 10
97.0184705857042
 20
-49.7500039910738
 40
0.5625
  0
LINE
  5
126
100
AcDbEntity
  8
0
  6
CONTINUOUS
100
AcDbLine
 10
97.0184705857042
 20
-19.7500039910738
 11
97.0184705857042
 21
-34.7500039910738
  0
CIRCLE
  5
127
100
AcDbEntity
  8
0
  6
CONTINUOUS
100
AcDbCircle
 10
97.0184705857042
 20
-19.7500039910738
 40
1.125
  0
CIRCLE
  5
128
100
AcDbEntity
  8
0
  6
CONTINUOUS
100
AcDbCircle
 10
97.0184705857042
 20
-19.7500039910738
 40
0.5625
  0
LINE
  5
129
100
AcDbEntity
  8
0
  6
CONTINUOUS
100
AcDbLine
 10
71.4058120594222
 20
-49.7500039910738
 11
103.018470585704
 21
-49.7500039910738
  0
LINE
  5
12A
100
AcDbEntity
  8
0
  6
CONTINUOUS
100
AcDbLine
 10
71.4058120594222
 20
-19.7500039910738
 11
103.018470585704
 21
-19.7500039910738
  0
MTEXT
  5
12B
100
AcDbEntity
  8
0
  6
CONTINUOUS
100
AcDbMText
 10
95.5184705857042
 20
-39.5593790760104
 40
8.10000014305116
 41
0.0
 11
6.12323399573677E-017
 21
1.0
 71
     7
 72
     5
  7
STANDARD
  1
{\T1.03125;\W0.666667;30}
 73
     1
 44
1.0
  0
POINT
  5
12C
100
AcDbEntity
  8
DEFPOINTS
  6
BYBLOCK
 62
     0
100
AcDbPoint
 10
66.9058120594222
 20
-49.7500039910738
  0
POINT
  5
12D
100
AcDbEntity
  8
DEFPOINTS
  6
BYBLOCK
 62
     0
100
AcDbPoint
 10
66.9058120594222
 20
-19.7500039910738
  0
POINT
  5
12E
100
AcDbEntity
  8
DEFPOINTS
  6
BYBLOCK
 62
     0
100
AcDbPoint
 10
97.0184705857042
 20
-19.7500039910738
  0
ENDBLK
  5
12F
100
AcDbEntity
  8
3
100
AcDbBlockEnd
  0
BLOCK
  5
132
100
AcDbEntity
  8
0
100
AcDbBlockBegin
  2
*D9
 70
    65
 10
0.0
 20
0.0
  0
LINE
  5
133
100
AcDbEntity
  8
0
  6
CONTINUOUS
100
AcDbLine
 10
67.2058120594223
 20
-92.5523378816528
 11
-0.294187940577753
 21
-92.5523378816528
  0
CIRCLE
  5
134
100
AcDbEntity
  8
0
  6
CONTINUOUS
100
AcDbCircle
 10
67.2058120594223
 20
-92.5523378816528
 40
1.125
  0
CIRCLE
  5
135
100
AcDbEntity
  8
0
  6
CONTINUOUS
100
AcDbCircle
 10
67.2058120594223
 20
-92.5523378816528
 40
0.5625
  0
LINE
  5
136
100
AcDbEntity
  8
0
  6
CONTINUOUS
100
AcDbLine
 10
-67.7941879405777
 20
-92.5523378816528
 11
-0.294187940577753
 21
-92.5523378816528
  0
CIRCLE
  5
137
100
AcDbEntity
  8
0
  6
CONTINUOUS
100
AcDbCircle
 10
-67.7941879405777
 20
-92.5523378816528
 40
1.125
  0
CIRCLE
  5
138
100
AcDbEntity
  8
0
  6
CONTINUOUS
100
AcDbCircle
 10
-67.7941879405777
 20
-92.5523378816528
 40
0.5625
  0
LINE
  5
139
100
AcDbEntity
  8
0
  6
CONTINUOUS
100
AcDbLine
 10
67.2058120594223
 20
-53.9500039733505
 11
67.2058120594223
 21
-98.5523390491443
  0
LINE
  5
13A
100
AcDbEntity
  8
0
  6
CONTINUOUS
100
AcDbLine
 10
-67.7941879405777
 20
-56.9500039733505
 11
-67.7941879405777
 21
-98.5523390491443
  0
MTEXT
  5
13B
100
AcDbEntity
  8
0
  6
CONTINUOUS
100
AcDbMText
 10
-7.88793788193967
 20
-91.0523371417957
 40
8.1
 41
0.0
 11
1.0
 21
0.0
 71
     7
 72
     5
  7
STANDARD
  1
{\T1.03125;\W0.666667;135}
 73
     1
 44
1.0
  0
POINT
  5
13C
100
AcDbEntity
  8
DEFPOINTS
  6
BYBLOCK
 62
     0
100
AcDbPoint
 10
67.2058120594223
 20
-49.4500039910737
  0
POINT
  5
13D
100
AcDbEntity
  8
DEFPOINTS
  6
BYBLOCK
 62
     0
100
AcDbPoint
 10
-67.7941879405777
 20
-52.4500039910737
  0
POINT
  5
13E
100
AcDbEntity
  8
DEFPOINTS
  6
BYBLOCK
 62
     0
100
AcDbPoint
 10
-67.7941879405777
 20
-92.5523378816528
  0
ENDBLK
  5
13F
100
AcDbEntity
  8
3
100
AcDbBlockEnd
  0
BLOCK
  5
29
100
AcDbEntity
  8
1
100
AcDbBlockBegin
  2
M4テックス13_0001
 70
    64
 10
0.0
 20
0.0
  0
LINE
  5
2A
100
AcDbEntity
  8
1
  6
CONTINUOUS
100
AcDbLine
 10
4.4844520076107
 20
0.0
 11
-14.7146839347332
 21
0.0
  0
LINE
  5
2B
100
AcDbEntity
  8
1
  6
CONTINUOUS
100
AcDbLine
 10
-8.0
 20
-1.75
 11
-8.0
 21
1.75
  0
LINE
  5
2C
100
AcDbEntity
  8
1
  6
CONTINUOUS
100
AcDbLine
 10
-11.8000000000001
 20
-1.75
 11
-13.0
 21
0.0
  0
LINE
  5
2D
100
AcDbEntity
  8
1
  6
CONTINUOUS
100
AcDbLine
 10
-8.0
 20
-1.75
 11
-11.8000000000001
 21
-1.75
  0
ARC
  5
2E
100
AcDbEntity
  8
1
  6
CONTINUOUS
100
AcDbCircle
 10
-12.2356759718286
 20
-1.01136736851309
 40
0.857549833377651
100
AcDbArc
 50
300.533856012632
 51
39.3605771503543
  0
LINE
  5
2F
100
AcDbEntity
  8
1
  6
CONTINUOUS
100
AcDbLine
 10
-0.899999999999999
 20
-1.5
 11
-1.1
 21
-2.2
  0
LINE
  5
30
100
AcDbEntity
  8
1
  6
CONTINUOUS
100
AcDbLine
 10
-1.1
 20
-2.2
 11
-1.6
 21
-1.5
  0
LINE
  5
31
100
AcDbEntity
  8
1
  6
CONTINUOUS
100
AcDbLine
 10
-2.35
 20
-1.5
 11
-2.5500000000001
 21
-2.2
  0
LINE
  5
32
100
AcDbEntity
  8
1
  6
CONTINUOUS
100
AcDbLine
 10
-2.5500000000001
 20
-2.2
 11
-3.0500000000001
 21
-1.5
  0
LINE
  5
33
100
AcDbEntity
  8
1
  6
CONTINUOUS
100
AcDbLine
 10
-3.8000000000001
 20
-1.5
 11
-4.0
 21
-2.2
  0
LINE
  5
34
100
AcDbEntity
  8
1
  6
CONTINUOUS
100
AcDbLine
 10
-4.0
 20
-2.2
 11
-4.5
 21
-1.5
  0
LINE
  5
35
100
AcDbEntity
  8
1
  6
CONTINUOUS
100
AcDbLine
 10
-5.25
 20
-1.5
 11
-5.45
 21
-2.2
  0
LINE
  5
36
100
AcDbEntity
  8
1
  6
CONTINUOUS
100
AcDbLine
 10
-5.45
 20
-2.2
 11
-5.95
 21
-1.5
  0
LINE
  5
37
100
AcDbEntity
  8
1
  6
CONTINUOUS
100
AcDbLine
 10
-0.5
 20
1.5
 11
-0.899999999999999
 21
-1.5
  0
LINE
  5
38
100
AcDbEntity
  8
1
  6
CONTINUOUS
100
AcDbLine
 10
-0.5
 20
1.5
 11
-1.6
 21
-1.5
  0
LINE
  5
39
100
AcDbEntity
  8
1
  6
CONTINUOUS
100
AcDbLine
 10
-1.25
 20
1.5
 11
-2.35
 21
-1.5
  0
LINE
  5
3A
100
AcDbEntity
  8
1
  6
CONTINUOUS
100
AcDbLine
 10
-1.95
 20
1.5
 11
-2.35
 21
-1.5
  0
LINE
  5
3B
100
AcDbEntity
  8
1
  6
CONTINUOUS
100
AcDbLine
 10
-1.95
 20
1.5
 11
-3.0500000000001
 21
-1.5
  0
LINE
  5
3C
100
AcDbEntity
  8
1
  6
CONTINUOUS
100
AcDbLine
 10
-2.7
 20
1.5
 11
-3.8000000000001
 21
-1.5
  0
LINE
  5
3D
100
AcDbEntity
  8
1
  6
CONTINUOUS
100
AcDbLine
 10
-3.4
 20
1.5
 11
-3.8000000000001
 21
-1.5
  0
LINE
  5
3E
100
AcDbEntity
  8
1
  6
CONTINUOUS
100
AcDbLine
 10
-3.4
 20
1.5
 11
-4.5
 21
-1.5
  0
LINE
  5
3F
100
AcDbEntity
  8
1
  6
CONTINUOUS
100
AcDbLine
 10
-4.15
 20
1.5
 11
-5.25
 21
-1.5
  0
LINE
  5
40
100
AcDbEntity
  8
1
  6
CONTINUOUS
100
AcDbLine
 10
-4.85
 20
1.5
 11
-5.25
 21
-1.5
  0
LINE
  5
41
100
AcDbEntity
  8
1
  6
CONTINUOUS
100
AcDbLine
 10
-4.85
 20
1.5
 11
-5.95
 21
-1.5
  0
LINE
  5
42
100
AcDbEntity
  8
1
  6
CONTINUOUS
100
AcDbLine
 10
-5.6
 20
1.5
 11
-6.7
 21
-1.5
  0
LINE
  5
43
100
AcDbEntity
  8
1
  6
CONTINUOUS
100
AcDbLine
 10
-6.7
 20
-1.5
 11
-6.9
 21
-2.2
  0
LINE
  5
44
100
AcDbEntity
  8
1
  6
CONTINUOUS
100
AcDbLine
 10
-6.9
 20
-2.2
 11
-7.4
 21
-1.5
  0
LINE
  5
45
100
AcDbEntity
  8
1
  6
CONTINUOUS
100
AcDbLine
 10
-6.3000000000001
 20
1.5
 11
-6.7
 21
-1.5
  0
LINE
  5
46
100
AcDbEntity
  8
1
  6
CONTINUOUS
100
AcDbLine
 10
-6.3000000000001
 20
1.5
 11
-7.4
 21
-1.5
  0
LINE
  5
47
100
AcDbEntity
  8
1
  6
CONTINUOUS
100
AcDbLine
 10
-6.7
 20
1.5
 11
-7.8000000000001
 21
-1.5
  0
LINE
  5
48
100
AcDbEntity
  8
1
  6
CONTINUOUS
100
AcDbLine
 10
-7.4
 20
1.5
 11
-7.8000000000001
 21
-1.5
  0
LINE
  5
49
100
AcDbEntity
  8
1
  6
CONTINUOUS
100
AcDbLine
 10
0.0
 20
-1.5
 11
-0.899999999999999
 21
-1.5
  0
LINE
  5
4A
100
AcDbEntity
  8
1
  6
CONTINUOUS
100
AcDbLine
 10
-1.6
 20
-1.5
 11
-2.35
 21
-1.5
  0
LINE
  5
4B
100
AcDbEntity
  8
1
  6
CONTINUOUS
100
AcDbLine
 10
-3.0500000000001
 20
-1.5
 11
-3.8000000000001
 21
-1.5
  0
LINE
  5
4C
100
AcDbEntity
  8
1
  6
CONTINUOUS
100
AcDbLine
 10
-4.5
 20
-1.5
 11
-5.25
 21
-1.5
  0
LINE
  5
4D
100
AcDbEntity
  8
1
  6
CONTINUOUS
100
AcDbLine
 10
-5.95
 20
-1.5
 11
-6.7
 21
-1.5
  0
LINE
  5
4E
100
AcDbEntity
  8
1
  6
CONTINUOUS
100
AcDbLine
 10
-7.4
 20
-1.5
 11
-8.0
 21
-1.5
  0
LINE
  5
4F
100
AcDbEntity
  8
1
  6
CONTINUOUS
100
AcDbLine
 10
-8.0
 20
1.75
 11
-11.8000000000001
 21
1.75
  0
LINE
  5
50
100
AcDbEntity
  8
1
  6
CONTINUOUS
100
AcDbLine
 10
-11.8000000000001
 20
1.75
 11
-13.0
 21
0.0
  0
LINE
  5
51
100
AcDbEntity
  8
1
  6
CONTINUOUS
100
AcDbLine
 10
-8.0
 20
1.75
 11
-13.0
 21
0.0
  0
ARC
  5
52
100
AcDbEntity
  8
1
  6
CONTINUOUS
100
AcDbCircle
 10
-15.5518880116722
 20
9.9301821055339
 40
11.1331213871283
100
AcDbArc
 50
290.942074504597
 51
312.712985072654
  0
LINE
  5
53
100
AcDbEntity
  8
1
  6
CONTINUOUS
100
AcDbLine
 10
-1.25
 20
1.5
 11
-1.45
 21
2.2
  0
LINE
  5
54
100
AcDbEntity
  8
1
  6
CONTINUOUS
100
AcDbLine
 10
-1.45
 20
2.2
 11
-1.95
 21
1.5
  0
LINE
  5
55
100
AcDbEntity
  8
1
  6
CONTINUOUS
100
AcDbLine
 10
-2.7
 20
1.5
 11
-2.9
 21
2.2
  0
LINE
  5
56
100
AcDbEntity
  8
1
  6
CONTINUOUS
100
AcDbLine
 10
-2.9
 20
2.2
 11
-3.4
 21
1.5
  0
LINE
  5
57
100
AcDbEntity
  8
1
  6
CONTINUOUS
100
AcDbLine
 10
-4.15
 20
1.5
 11
-4.35
 21
2.2
  0
LINE
  5
58
100
AcDbEntity
  8
1
  6
CONTINUOUS
100
AcDbLine
 10
-4.35
 20
2.2
 11
-4.85
 21
1.5
  0
LINE
  5
59
100
AcDbEntity
  8
1
  6
CONTINUOUS
100
AcDbLine
 10
-5.6
 20
1.5
 11
-5.8000000000001
 21
2.2
  0
LINE
  5
5A
100
AcDbEntity
  8
1
  6
CONTINUOUS
100
AcDbLine
 10
-5.8000000000001
 20
2.2
 11
-6.3000000000001
 21
1.5
  0
LINE
  5
5B
100
AcDbEntity
  8
1
  6
CONTINUOUS
100
AcDbLine
 10
-6.7
 20
1.5
 11
-6.9
 21
2.2
  0
LINE
  5
5C
100
AcDbEntity
  8
1
  6
CONTINUOUS
100
AcDbLine
 10
-6.9
 20
2.2
 11
-7.4
 21
1.5
  0
LINE
  5
5D
100
AcDbEntity
  8
1
  6
CONTINUOUS
100
AcDbLine
 10
0.0
 20
1.5
 11
-1.25
 21
1.5
  0
LINE
  5
5E
100
AcDbEntity
  8
1
  6
CONTINUOUS
100
AcDbLine
 10
-1.95
 20
1.5
 11
-2.7
 21
1.5
  0
LINE
  5
5F
100
AcDbEntity
  8
1
  6
CONTINUOUS
100
AcDbLine
 10
-3.4
 20
1.5
 11
-4.15
 21
1.5
  0
LINE
  5
60
100
AcDbEntity
  8
1
  6
CONTINUOUS
100
AcDbLine
 10
-4.85
 20
1.5
 11
-5.6
 21
1.5
  0
LINE
  5
61
100
AcDbEntity
  8
1
  6
CONTINUOUS
100
AcDbLine
 10
-6.3000000000001
 20
1.5
 11
-6.7
 21
1.5
  0
LINE
  5
62
100
AcDbEntity
  8
1
  6
CONTINUOUS
100
AcDbLine
 10
-7.4
 20
1.5
 11
-8.0
 21
1.5
  0
LINE
  5
63
100
AcDbEntity
  8
1
  6
CONTINUOUS
100
AcDbLine
 10
-13.0
 20
0.0
 11
-11.5726440622869
 21
-0.4675103986621
  0
LINE
  5
64
100
AcDbEntity
  8
1
  6
CONTINUOUS
100
AcDbLine
 10
1.2167393630179
 20
1.73768389601871
 11
0.0
 21
0.0
  0
ARC
  5
65
100
AcDbEntity
  8
1
  6
CONTINUOUS
100
AcDbCircle
 10
-1.7438596491229
 20
0.0
 40
4.59385964912281
100
AcDbArc
 50
292.309319477858
 51
67.6906805221424
  0
LINE
  5
66
100
AcDbEntity
  8
1
  6
CONTINUOUS
100
AcDbLine
 10
2.4159938296807
 20
1.9491448152265
 11
1.2167393630179
 21
1.73768389601871
  0
LINE
  5
67
100
AcDbEntity
  8
1
  6
CONTINUOUS
100
AcDbLine
 10
1.2167393630179
 20
-1.73768389601869
 11
0.0
 21
0.0
  0
LINE
  5
68
100
AcDbEntity
  8
1
  6
CONTINUOUS
100
AcDbLine
 10
2.4159938296807
 20
-1.9491448152265
 11
1.2167393630179
 21
-1.73768389601869
  0
LINE
  5
69
100
AcDbEntity
  8
1
  6
CONTINUOUS
100
AcDbLine
 10
0.0
 20
-4.25
 11
0.0
 21
4.25
  0
ENDBLK
  5
6A
100
AcDbEntity
  8
1
100
AcDbBlockEnd
  0
BLOCK
  5
6E
100
AcDbEntity
  8
1
100
AcDbBlockBegin
  2
あ_0002
 70
    64
 10
0.0
 20
0.0
  0
LINE
  5
6F
100
AcDbEntity
  8
1
  6
CONTINUOUS
100
AcDbLine
 10
8.18918928989149
 20
12.5297295148983
 11
2.18918928989149
 21
18.5297295148983
  0
LINE
  5
70
100
AcDbEntity
  8
1
  6
CONTINUOUS
100
AcDbLine
 10
8.18918928989149
 20
13.9439430772714
 11
2.18918928989149
 21
19.9439430772714
  0
LINE
  5
71
100
AcDbEntity
  8
1
  6
CONTINUOUS
100
AcDbLine
 10
-27.5214888287633
 20
-17.4702704851017
 11
-33.5214888287633
 21
-11.4702704851017
  0
LINE
  5
72
100
AcDbEntity
  8
1
  6
CONTINUOUS
100
AcDbLine
 10
-26.1072752663902
 20
-17.4702704851017
 11
-32.1072752663902
 21
-11.4702704851017
  0
LWPOLYLINE
  5
73
100
AcDbEntity
  8
1
  6
CONTINUOUS
100
AcDbPolyline
 90
       10
 70
     1
 43
0.0
 10
2.18918928989149
 20
-2.9702704851017
 10
2.18918928989149
 20
43.5297295148983
 42
-0.414213562373099
 10
6.18918928989149
 20
47.5297295148983
 10
8.18918928989149
 20
47.5297295148983
 10
8.18918928989149
 20
-17.4702704851017
 10
-56.8108107101085
 20
-17.4702704851017
 10
-56.8108107101085
 20
-15.4702704851017
 42
-0.414213562373103
 10
-52.8108107101085
 20
-11.4702704851017
 10
-6.31081071010851
 20
-11.4702704851017
 42
0.414213562373095
 10
2.18918928989149
 20
-2.9702704851017
  0
ENDBLK
  5
74
100
AcDbEntity
  8
1
100
AcDbBlockEnd
  0
ENDSEC
  0
SECTION
  2
ENTITIES
  0
LWPOLYLINE
  5
24
100
AcDbEntity
  8
1
  6
CONTINUOUS
100
AcDbPolyline
 90
      320
 70
     1
 43
0.0
 10
51.2058120594223
 20
-7.7498540504058
 42
-0.414213562373046
 10
50.2058120594223
 20
-8.74985405040578
 10
31.5058120594222
 20
-8.75000399107372
 42
0.414213562373101
 10
31.2058120594223
 20
-9.05000399107372
 10
31.2058120594223
 20
-11.6257399223618
 42
-0.19891236738005
 10
31.1179440937782
 20
-11.8378719567178
 10
30.9179440937782
 20
-12.0378719567178
 42
-0.198912367379696
 10
30.7058120594223
 20
-12.1257399223618
 42
-0.198912367379465
 10
30.4936800250663
 20
-12.0378719567178
 10
30.4179440937782
 20
-11.9621360254297
 42
0.414213562373121
 10
29.9936800250663
 20
-11.9621360254297
 10
29.9179440937782
 20
-12.0378719567178
 42
-0.198912367379696
 10
29.7058120594223
 20
-12.1257399223618
 42
-0.198912367379465
 10
29.4936800250663
 20
-12.0378719567178
 10
29.4179440937782
 20
-11.9621360254297
 42
0.414213562373121
 10
28.9936800250663
 20
-11.9621360254297
 10
28.9179440937782
 20
-12.0378719567178
 42
-0.198912367379696
 10
28.7058120594223
 20
-12.1257399223618
 42
-0.198912367379465
 10
28.4936800250663
 20
-12.0378719567178
 10
28.4179440937782
 20
-11.9621360254297
 42
0.414213562373121
 10
27.9936800250663
 20
-11.9621360254297
 10
27.9179440937782
 20
-12.0378719567178
 42
-0.198912367379696
 10
27.7058120594223
 20
-12.1257399223618
 42
-0.198912367379465
 10
27.4936800250663
 20
-12.0378719567178
 10
27.4179440937782
 20
-11.9621360254297
 42
0.414213562373121
 10
26.9936800250663
 20
-11.9621360254297
 10
26.9179440937782
 20
-12.0378719567178
 42
-0.198912367379696
 10
26.7058120594223
 20
-12.1257399223618
 42
-0.198912367379465
 10
26.4936800250663
 20
-12.0378719567178
 10
26.4179440937782
 20
-11.9621360254297
 42
0.414213562373121
 10
25.9936800250663
 20
-11.9621360254297
 10
25.9179440937782
 20
-12.0378719567178
 42
-0.198912367379696
 10
25.7058120594223
 20
-12.1257399223618
 42
-0.198912367379465
 10
25.4936800250663
 20
-12.0378719567178
 10
25.4179440937782
 20
-11.9621360254297
 42
0.414213562373121
 10
24.9936800250663
 20
-11.9621360254297
 10
24.9179440937782
 20
-12.0378719567178
 42
-0.198912367379696
 10
24.7058120594223
 20
-12.1257399223618
 42
-0.198912367379465
 10
24.4936800250663
 20
-12.0378719567178
 10
24.4179440937782
 20
-11.9621360254297
 42
0.414213562373121
 10
23.9936800250663
 20
-11.9621360254297
 10
23.9179440937782
 20
-12.0378719567178
 42
-0.198912367379696
 10
23.7058120594223
 20
-12.1257399223618
 42
-0.198912367379465
 10
23.4936800250663
 20
-12.0378719567178
 10
23.4179440937782
 20
-11.9621360254297
 42
0.414213562373121
 10
22.9936800250663
 20
-11.9621360254297
 10
22.9179440937782
 20
-12.0378719567178
 42
-0.198912367379696
 10
22.7058120594223
 20
-12.1257399223618
 42
-0.198912367379465
 10
22.4936800250663
 20
-12.0378719567178
 10
22.4179440937782
 20
-11.9621360254297
 42
0.414213562373121
 10
21.9936800250663
 20
-11.9621360254297
 10
21.9179440937782
 20
-12.0378719567178
 42
-0.198912367379696
 10
21.7058120594223
 20
-12.1257399223618
 42
-0.198912367379465
 10
21.4936800250663
 20
-12.0378719567178
 10
21.4179440937782
 20
-11.9621360254297
 42
0.414213562373121
 10
20.9936800250663
 20
-11.9621360254297
 10
20.9179440937782
 20
-12.0378719567178
 42
-0.198912367379696
 10
20.7058120594223
 20
-12.1257399223618
 42
-0.198912367379465
 10
20.4936800250663
 20
-12.0378719567178
 10
20.4179440937782
 20
-11.9621360254297
 42
0.414213562373121
 10
19.9936800250663
 20
-11.9621360254297
 10
19.9179440937782
 20
-12.0378719567178
 42
-0.198912367379696
 10
19.7058120594223
 20
-12.1257399223618
 42
-0.198912367379465
 10
19.4936800250663
 20
-12.0378719567178
 10
19.4179440937782
 20
-11.9621360254297
 42
0.414213562373121
 10
18.9936800250663
 20
-11.9621360254297
 10
18.9179440937782
 20
-12.0378719567178
 42
-0.198912367379696
 10
18.7058120594223
 20
-12.1257399223618
 42
-0.198912367379465
 10
18.4936800250663
 20
-12.0378719567178
 10
18.4179440937782
 20
-11.9621360254297
 42
0.414213562373121
 10
17.9936800250663
 20
-11.9621360254297
 10
17.9179440937782
 20
-12.0378719567178
 42
-0.198912367379696
 10
17.7058120594223
 20
-12.1257399223618
 42
-0.198912367379465
 10
17.4936800250663
 20
-12.0378719567178
 10
17.4179440937782
 20
-11.9621360254297
 42
0.414213562373121
 10
16.9936800250663
 20
-11.9621360254297
 10
16.9179440937782
 20
-12.0378719567178
 42
-0.198912367379696
 10
16.7058120594223
 20
-12.1257399223618
 42
-0.198912367379465
 10
16.4936800250663
 20
-12.0378719567178
 10
16.4179440937782
 20
-11.9621360254297
 42
0.414213562373121
 10
15.9936800250663
 20
-11.9621360254297
 10
15.9179440937782
 20
-12.0378719567178
 42
-0.198912367379706
 10
15.7058120594223
 20
-12.1257399223618
 42
-0.198912367379463
 10
15.4936800250663
 20
-12.0378719567178
 10
15.4179440937782
 20
-11.9621360254297
 42
0.414213562373129
 10
14.9936800250663
 20
-11.9621360254297
 10
14.9179440937782
 20
-12.0378719567178
 42
-0.198912367379706
 10
14.7058120594223
 20
-12.1257399223618
 42
-0.198912367379463
 10
14.4936800250663
 20
-12.0378719567178
 10
14.4179440937782
 20
-11.9621360254297
 42
0.414213562373129
 10
13.9936800250663
 20
-11.9621360254297
 10
13.9179440937782
 20
-12.0378719567178
 42
-0.198912367379706
 10
13.7058120594223
 20
-12.1257399223618
 42
-0.198912367379463
 10
13.4936800250663
 20
-12.0378719567178
 10
13.4179440937782
 20
-11.9621360254297
 42
0.414213562373129
 10
12.9936800250663
 20
-11.9621360254297
 10
12.9179440937782
 20
-12.0378719567178
 42
-0.198912367379706
 10
12.7058120594223
 20
-12.1257399223618
 42
-0.198912367379463
 10
12.4936800250663
 20
-12.0378719567178
 10
12.4179440937782
 20
-11.9621360254297
 42
0.414213562373129
 10
11.9936800250663
 20
-11.9621360254297
 10
11.9179440937782
 20
-12.0378719567178
 42
-0.198912367379706
 10
11.7058120594223
 20
-12.1257399223618
 42
-0.198912367379463
 10
11.4936800250663
 20
-12.0378719567178
 10
11.4179440937782
 20
-11.9621360254297
 42
0.414213562373129
 10
10.9936800250663
 20
-11.9621360254297
 10
10.9179440937782
 20
-12.0378719567178
 42
-0.198912367379706
 10
10.7058120594223
 20
-12.1257399223618
 42
-0.198912367379463
 10
10.4936800250663
 20
-12.0378719567178
 10
10.4179440937782
 20
-11.9621360254297
 42
0.414213562373129
 10
9.99368002506628
 20
-11.9621360254297
 10
9.91794409377818
 20
-12.0378719567178
 42
-0.198912367379706
 10
9.70581205942228
 20
-12.1257399223618
 42
-0.198912367379463
 10
9.49368002506628
 20
-12.0378719567178
 10
9.41794409377818
 20
-11.9621360254297
 42
0.414213562373129
 10
8.99368002506628
 20
-11.9621360254297
 10
8.91794409377818
 20
-12.0378719567178
 42
-0.198912367379597
 10
8.70581205942225
 20
-12.1257399223618
 42
-0.1989123673796
 10
8.49368002506632
 20
-12.0378719567178
 10
8.41794409377818
 20
-11.9621360254297
 42
0.414213562373167
 10
7.99368002506632
 20
-11.9621360254297
 10
7.91794409377818
 20
-12.0378719567178
 42
-0.198912367379593
 10
7.70581205942225
 20
-12.1257399223618
 42
-0.198912367379592
 10
7.49368002506632
 20
-12.0378719567178
 10
7.41794409377818
 20
-11.9621360254297
 42
0.414213562373167
 10
6.99368002506632
 20
-11.9621360254297
 10
6.91794409377818
 20
-12.0378719567178
 42
-0.198912367379593
 10
6.70581205942225
 20
-12.1257399223618
 42
-0.198912367379592
 10
6.49368002506632
 20
-12.0378719567178
 10
6.41794409377818
 20
-11.9621360254297
 42
0.414213562373167
 10
5.99368002506632
 20
-11.9621360254297
 10
5.91794409377818
 20
-12.0378719567178
 42
-0.198912367379593
 10
5.70581205942225
 20
-12.1257399223618
 42
-0.198912367379592
 10
5.49368002506632
 20
-12.0378719567178
 10
5.41794409377818
 20
-11.9621360254297
 42
0.414213562373167
 10
4.99368002506632
 20
-11.9621360254297
 10
4.91794409377818
 20
-12.0378719567178
 42
-0.198912367379593
 10
4.70581205942225
 20
-12.1257399223618
 42
-0.198912367379592
 10
4.49368002506632
 20
-12.0378719567178
 10
4.41794409377818
 20
-11.9621360254297
 42
0.414213562373167
 10
3.99368002506632
 20
-11.9621360254297
 10
3.91794409377818
 20
-12.0378719567178
 42
-0.198912367379594
 10
3.70581205942225
 20
-12.1257399223618
 42
-0.198912367379595
 10
3.49368002506632
 20
-12.0378719567178
 10
3.41794409377818
 20
-11.9621360254297
 42
0.414213562373167
 10
2.99368002506632
 20
-11.9621360254297
 10
2.91794409377818
 20
-12.0378719567178
 42
-0.198912367379594
 10
2.70581205942225
 20
-12.1257399223618
 42
-0.198912367379595
 10
2.49368002506632
 20
-12.0378719567178
 10
2.41794409377818
 20
-11.9621360254297
 42
0.414213562373168
 10
1.99368002506632
 20
-11.9621360254297
 10
1.91794409377818
 20
-12.0378719567178
 42
-0.198912367379593
 10
1.70581205942225
 20
-12.1257399223618
 42
-0.198912367379595
 10
1.49368002506632
 20
-12.0378719567178
 10
1.41794409377818
 20
-11.9621360254297
 42
0.414213562373167
 10
0.993680025066318
 20
-11.9621360254297
 10
0.917944093778179
 20
-12.0378719567178
 42
-0.198912367379593
 10
0.705812059422249
 20
-12.1257399223618
 42
-0.198912367379594
 10
0.493680025066319
 20
-12.0378719567178
 10
0.417944093778179
 20
-11.9621360254297
 42
0.414213562373167
 10
-0.0063199749336813
 20
-11.9621360254297
 10
-0.0820559062218214
 20
-12.0378719567178
 42
-0.198912367379575
 10
-0.294187940577753
 20
-12.1257399223618
 42
-0.19891236737959
 10
-0.506319974933685
 20
-12.0378719567178
 10
-0.582055906221821
 20
-11.9621360254297
 42
0.414213562373164
 10
-1.00631997493369
 20
-11.9621360254297
 10
-1.08205590622182
 20
-12.0378719567178
 42
-0.198912367379575
 10
-1.29418794057775
 20
-12.1257399223618
 42
-0.19891236737959
 10
-1.50631997493369
 20
-12.0378719567178
 10
-1.58205590622182
 20
-11.9621360254297
 42
0.414213562373164
 10
-2.00631997493369
 20
-11.9621360254297
 10
-2.08205590622182
 20
-12.0378719567178
 42
-0.198912367379594
 10
-2.29418794057775
 20
-12.1257399223618
 42
-0.198912367379593
 10
-2.50631997493368
 20
-12.0378719567178
 10
-2.58205590622182
 20
-11.9621360254297
 42
0.414213562373168
 10
-3.00631997493368
 20
-11.9621360254297
 10
-3.08205590622182
 20
-12.0378719567178
 42
-0.198912367379594
 10
-3.29418794057775
 20
-12.1257399223618
 42
-0.198912367379595
 10
-3.50631997493368
 20
-12.0378719567178
 10
-3.58205590622182
 20
-11.9621360254297
 42
0.414213562373167
 10
-4.00631997493368
 20
-11.9621360254297
 10
-4.08205590622182
 20
-12.0378719567178
 42
-0.198912367379593
 10
-4.29418794057775
 20
-12.1257399223618
 42
-0.198912367379592
 10
-4.50631997493368
 20
-12.0378719567178
 10
-4.58205590622182
 20
-11.9621360254297
 42
0.414213562373167
 10
-5.00631997493368
 20
-11.9621360254297
 10
-5.08205590622182
 20
-12.0378719567178
 42
-0.198912367379593
 10
-5.29418794057775
 20
-12.1257399223618
 42
-0.198912367379592
 10
-5.50631997493368
 20
-12.0378719567178
 10
-5.58205590622182
 20
-11.9621360254297
 42
0.414213562373167
 10
-6.00631997493368
 20
-11.9621360254297
 10
-6.08205590622182
 20
-12.0378719567178
 42
-0.198912367379593
 10
-6.29418794057775
 20
-12.1257399223618
 42
-0.198912367379592
 10
-6.50631997493368
 20
-12.0378719567178
 10
-6.58205590622182
 20
-11.9621360254297
 42
0.414213562373167
 10
-7.00631997493368
 20
-11.9621360254297
 10
-7.08205590622182
 20
-12.0378719567178
 42
-0.198912367379593
 10
-7.29418794057775
 20
-12.1257399223618
 42
-0.198912367379592
 10
-7.50631997493368
 20
-12.0378719567178
 10
-7.58205590622182
 20
-11.9621360254297
 42
0.414213562373167
 10
-8.00631997493368
 20
-11.9621360254297
 10
-8.08205590622182
 20
-12.0378719567178
 42
-0.198912367379597
 10
-8.29418794057775
 20
-12.1257399223618
 42
-0.1989123673796
 10
-8.50631997493368
 20
-12.0378719567178
 10
-8.58205590622182
 20
-11.9621360254297
 42
0.414213562373167
 10
-9.00631997493368
 20
-11.9621360254297
 10
-9.08205590622182
 20
-12.0378719567178
 42
-0.198912367379597
 10
-9.29418794057775
 20
-12.1257399223618
 42
-0.1989123673796
 10
-9.50631997493368
 20
-12.0378719567178
 10
-9.58205590622182
 20
-11.9621360254297
 42
0.414213562373167
 10
-10.0063199749337
 20
-11.9621360254297
 10
-10.0820559062218
 20
-12.0378719567178
 42
-0.198912367379597
 10
-10.2941879405778
 20
-12.1257399223618
 42
-0.1989123673796
 10
-10.5063199749337
 20
-12.0378719567178
 10
-10.5820559062218
 20
-11.9621360254297
 42
0.414213562373167
 10
-11.0063199749337
 20
-11.9621360254297
 10
-11.0820559062218
 20
-12.0378719567178
 42
-0.198912367379706
 10
-11.2941879405777
 20
-12.1257399223618
 42
-0.198912367379463
 10
-11.5063199749337
 20
-12.0378719567178
 10
-11.5820559062218
 20
-11.9621360254297
 42
0.414213562373129
 10
-12.0063199749337
 20
-11.9621360254297
 10
-12.0820559062218
 20
-12.0378719567178
 42
-0.198912367379706
 10
-12.2941879405777
 20
-12.1257399223618
 42
-0.198912367379463
 10
-12.5063199749337
 20
-12.0378719567178
 10
-12.5820559062218
 20
-11.9621360254297
 42
0.414213562373129
 10
-13.0063199749337
 20
-11.9621360254297
 10
-13.0820559062218
 20
-12.0378719567178
 42
-0.198912367379706
 10
-13.2941879405777
 20
-12.1257399223618
 42
-0.198912367379463
 10
-13.5063199749337
 20
-12.0378719567178
 10
-13.5820559062218
 20
-11.9621360254297
 42
0.414213562373129
 10
-14.0063199749337
 20
-11.9621360254297
 10
-14.0820559062218
 20
-12.0378719567178
 42
-0.198912367379706
 10
-14.2941879405777
 20
-12.1257399223618
 42
-0.198912367379463
 10
-14.5063199749337
 20
-12.0378719567178
 10
-14.5820559062218
 20
-11.9621360254297
 42
0.414213562373129
 10
-15.0063199749337
 20
-11.9621360254297
 10
-15.0820559062218
 20
-12.0378719567178
 42
-0.198912367379706
 10
-15.2941879405777
 20
-12.1257399223618
 42
-0.198912367379463
 10
-15.5063199749337
 20
-12.0378719567178
 10
-15.5820559062218
 20
-11.9621360254297
 42
0.414213562373129
 10
-16.0063199749337
 20
-11.9621360254297
 10
-16.0820559062218
 20
-12.0378719567178
 42
-0.198912367379696
 10
-16.2941879405777
 20
-12.1257399223618
 42
-0.198912367379448
 10
-16.5063199749337
 20
-12.0378719567178
 10
-16.5820559062218
 20
-11.9621360254297
 42
0.414213562373121
 10
-17.0063199749337
 20
-11.9621360254297
 10
-17.0820559062218
 20
-12.0378719567178
 42
-0.198912367379696
 10
-17.2941879405777
 20
-12.1257399223618
 42
-0.198912367379465
 10
-17.5063199749337
 20
-12.0378719567178
 10
-17.5820559062218
 20
-11.9621360254297
 42
0.414213562373121
 10
-18.0063199749337
 20
-11.9621360254297
 10
-18.0820559062218
 20
-12.0378719567178
 42
-0.198912367379696
 10
-18.2941879405777
 20
-12.1257399223618
 42
-0.198912367379465
 10
-18.5063199749337
 20
-12.0378719567178
 10
-18.5820559062218
 20
-11.9621360254297
 42
0.414213562373121
 10
-19.0063199749337
 20
-11.9621360254297
 10
-19.0820559062218
 20
-12.0378719567178
 42
-0.198912367379696
 10
-19.2941879405777
 20
-12.1257399223618
 42
-0.198912367379465
 10
-19.5063199749337
 20
-12.0378719567178
 10
-19.7063199749337
 20
-11.8378719567177
 42
0.198912367379374
 10
-19.9184520092896
 20
-11.7500039910737
 10
-19.9941879405778
 20
-11.7500039910737
 42
-0.414213562373091
 10
-20.2941879405777
 20
-11.4500039910737
 10
-19.7941879405777
 20
-2.24985405040578
 42
-0.414213562373102
 10
-14.7941879405777
 20
2.75014594959424
 10
-10.0941879405777
 20
2.75014594959424
 42
-0.414213562372893
 10
-9.79418794057775
 20
2.45014594959424
 10
-9.79418794057775
 20
1.99267068666444
 42
-0.353653337538911
 10
-10.0313292139585
 20
1.69932996244124
 10
-14.8180106624049
 20
0.673612509202638
 42
0.353653337539076
 10
-16.7941879405777
 20
-1.77089352599086
 10
-16.7941879405777
 20
-8.44985405040578
 42
0.414213562373158
 10
-16.4941879405778
 20
-8.74985405040578
 10
-8.59418794057771
 20
-8.7498540504058
 42
0.414213562373104
 10
-8.29418794057775
 20
-8.44985405040578
 10
-8.29418794057775
 20
-6.04985405040579
 42
-0.414213562373137
 10
-7.9941879405778
 20
-5.7498540504058
 10
-6.59418794057771
 20
-5.74985405040578
 42
-0.414213562373101
 10
-6.29418794057775
 20
-6.04985405040579
 10
-6.29418794057775
 20
-8.44985405040578
 42
0.414213562373156
 10
-5.9941879405778
 20
-8.74985405040578
 10
0.905812059422289
 20
-8.7498540504058
 42
0.41421356237311
 10
1.20581205942225
 20
-8.44985405040578
 10
1.20581205942225
 20
-6.04985405040579
 42
-0.414213562373141
 10
1.5058120594222
 20
-5.7498540504058
 10
2.90581205942229
 20
-5.74985405040578
 42
-0.414213562373106
 10
3.20581205942225
 20
-6.04985405040579
 10
3.20581205942225
 20
-8.44985405040578
 42
0.414213562373155
 10
3.5058120594222
 20
-8.74985405040578
 10
6.40581205942229
 20
-8.7498540504058
 42
0.414213562373107
 10
6.70581205942225
 20
-8.44985405040578
 10
6.70581205942225
 20
-6.04985405040579
 42
-0.41421356237314
 10
7.0058120594222
 20
-5.7498540504058
 10
8.40581205942229
 20
-5.74985405040578
 42
-0.414213562373102
 10
8.70581205942225
 20
-6.04985405040579
 10
8.70581205942225
 20
-8.44985405040578
 42
0.414213562373127
 10
9.00581205942218
 20
-8.74985405040578
 10
15.9058120594223
 20
-8.74985405040578
 42
0.414213562372852
 10
16.2058120594223
 20
-8.44985405040578
 10
16.2058120594223
 20
-6.04985405040579
 42
-0.414213562373147
 10
16.5058120594222
 20
-5.7498540504058
 10
18.4058120594223
 20
-5.7498540504058
 42
-0.414213562372881
 10
18.7058120594223
 20
-6.04985405040579
 10
18.7058120594223
 20
-8.44985405040578
 42
0.414213562373158
 10
19.0058120594222
 20
-8.74985405040578
 10
25.4058120594223
 20
-8.75000399107372
 42
0.414213562372849
 10
25.7058120594223
 20
-8.45000399107372
 10
25.7058120594223
 20
-6.05000399107372
 42
-0.414213562373095
 10
26.0058120594222
 20
-5.75000399107372
 10
47.9058120594223
 20
-5.74985405040578
 42
0.414213562372891
 10
48.2058120594223
 20
-5.44985405040578
 10
48.2058120594223
 20
8.95014594959424
 42
-0.414213562372927
 10
48.5058120594222
 20
9.25014594959424
 10
62.9058120594222
 20
9.25014594959424
 42
-0.414213562372789
 10
63.2058120594223
 20
8.95014594959424
 10
63.2058120594223
 20
6.55014594959424
 42
-0.414213562373114
 10
62.9058120594222
 20
6.25014594959424
 10
51.5058120594222
 20
6.25014594959424
 42
0.414213562372921
 10
51.2058120594223
 20
5.95014594959424
 10
51.2058120594223
 20
-7.7498540504058
  0
LWPOLYLINE
  5
26
100
AcDbEntity
  8
1
  6
CONTINUOUS
100
AcDbPolyline
 90
       17
 70
     1
 43
0.0
 10
48.2058120594223
 20
9.55014594959424
 10
48.2058120594223
 20
57.9501459495942
 42
0.414213562372762
 10
47.9058120594222
 20
58.2501459495942
 10
45.9099436240598
 20
58.2501459495942
 42
0.308212412426252
 10
42.1877672137002
 20
55.7148652981936
 42
-0.825516419467494
 10
40.7608752549726
 20
55.9901459495942
 42
-0.37134524516024
 10
45.7058120594223
 20
60.2501459495942
 10
49.2058120594223
 20
60.2501459495942
 42
-0.414213562373007
 10
50.2058120594223
 20
59.2501459495942
 10
50.2058120594223
 20
13.7501459495942
 42
0.414213562373099
 10
52.2058120594223
 20
11.7501459495942
 10
62.2058120594223
 20
11.7501459495942
 42
-0.414213562373006
 10
63.2058120594223
 20
10.7501459495942
 10
63.2058120594223
 20
9.55014594959424
 42
-0.414213562373114
 10
62.9058120594222
 20
9.25014594959424
 10
48.5058120594223
 20
9.25014594959424
 42
-0.414213562373319
 10
48.2058120594223
 20
9.55014594959424
  0
INSERT
  5
28
100
AcDbEntity
  8
1
  6
CONTINUOUS
100
AcDbBlockReference
  2
M4テックス13_0001
 10
50.9058120594223
 20
-34.0500039910738
 41
1.0
 42
1.0
 50
0.0
  0
LINE
  5
6B
100
AcDbEntity
  8
1
  6
CONTINUOUS
100
AcDbLine
 10
-57.7941879405777
 20
10.2501459495942
 11
-57.7941879405777
 21
86.4193006834939
  0
INSERT
  5
6D
100
AcDbEntity
  8
1
  6
CONTINUOUS
100
AcDbBlockReference
  2
あ_0002
 10
40.0166227695308
 20
11.7204164346959
 41
1.0
 42
1.0
 50
0.0
  0
LINE
  5
75
100
AcDbEntity
  8
1
  6
CONTINUOUS
100
AcDbLine
 10
-47.7941879405777
 20
0.250145949594238
 11
32.2058120594223
 21
0.250145949594238
  0
LINE
  5
76
100
AcDbEntity
  8
1
  6
CONTINUOUS
100
AcDbLine
 10
-57.7941879405777
 20
10.2501459495942
 11
-47.7941879405777
 21
0.250145949594238
  0
LINE
  5
77
100
AcDbEntity
  8
1
  6
CONTINUOUS
100
AcDbLine
 10
42.2058120594223
 20
10.2501459495942
 11
42.2058120594223
 21
86.4193006834939
  0
LINE
  5
78
100
AcDbEntity
  8
1
  6
CONTINUOUS
100
AcDbLine
 10
42.2058120594223
 20
10.2501459495942
 11
32.2058120594223
 21
0.250145949594238
  0
LINE
  5
79
100
AcDbEntity
  8
1
  6
CONTINUOUS
100
AcDbLine
 10
53.9058120594223
 20
-39.7500039910738
 11
53.9058120594223
 21
-30.7500039910738
  0
LINE
  5
7A
100
AcDbEntity
  8
1
  6
CONTINUOUS
100
AcDbLine
 10
-47.7941879405777
 20
-14.9762865923516
 11
-47.7941879405777
 21
0.250145949594238
  0
SPLINE
  5
7B
100
AcDbEntity
  8
1
  6
CONTINUOUS
100
AcDbSpline
210
0.0
220
0.0
230
1.0
 70
     8
 71
     3
 72
     9
 73
     5
 74
     0
 42
1.00000000000000E-007
 43
1.00000000000000E-007
 40
0.0
 40
0.0
 40
0.0
 40
0.0
 40
16.8567989280844
 40
26.7498707574628
 40
26.7498707574628
 40
26.7498707574628
 40
26.7498707574628
 10
-57.7941879405777
 20
10.2501459495942
 30
0.0
 10
-57.2102920126613
 20
6.43015969396864
 30
0.0
 10
-54.8747083009958
 20
-8.84978532854206
 30
0.0
 10
-57.1189437267458
 20
-14.7825496066437
 30
0.0
 10
-57.6800025831834
 20
-16.2657406761697
 30
0.0
  0
HATCH
  5
7C
100
AcDbEntity
  8
1
  6
CONTINUOUS
100
AcDbHatch
 10
0.0
 20
0.0
 30
0.0
210
0.0
220
0.0
230
1.0
  2
_U
 70
     0
 71
     0
 91
        1
 92
        5
 93
       11
 72
     1
 10
-57.7941879405777
 20
10.2501459495942
 11
-47.7941879405777
 21
0.250145949594238
 72
     1
 10
-47.7941879405777
 20
0.250145949594238
 11
-47.7941879405777
 21
-14.9762865923516
 72
     1
 10
-47.7941879405777
 20
-14.9762865923516
 11
-57.6800025831834
 21
-16.2657406761697
 72
     1
 10
-57.6800025831834
 20
-16.2657406761697
 11
-56.5580206034653
 21
-12.4762081165212
 72
     1
 10
-56.5580206034653
 20
-12.4762081165212
 11
-56.0196630853496
 21
-6.51299014243949
 72
     1
 10
-56.0196630853496
 20
-6.51299014243949
 11
-56.2170723435183
 21
-2.28653268844993
 72
     1
 10
-56.2170723435183
 20
-2.28653268844993
 11
-56.5352987599311
 21
1.03144905093764
 72
     1
 10
-56.5352987599311
 20
1.03144905093764
 11
-56.8111186533258
 21
3.35227791875204
 72
     1
 10
-56.8111186533258
 20
3.35227791875204
 11
-57.0337919044
 21
5.04890223059894
 72
     1
 10
-57.0337919044
 20
5.04890223059894
 11
-57.7941879405777
 21
10.2501459495942
 72
     1
 10
-57.7941879405777
 20
10.2501459495942
 11
-57.7941879405777
 21
10.2501459495942
 97
        0
 75
     0
 76
     0
 52
45.0
 41
6.0
 77
     0
 78
     2
 53
45.0
 43
-67.7941863322189
 44
-52.584982267723
 45
-4.24264068711929
 46
4.24264068711928
 79
     0
 53
135.0
 43
-67.7941863322189
 44
-52.584982267723
 45
4.24264068711928
 46
4.24264068711928
 79
     0
 47
0.322189
 98
        1
 10
0.0
 20
0.0
  0
LINE
  5
7D
100
AcDbEntity
  8
1
  6
CONTINUOUS
100
AcDbLine
 10
-57.7941879405777
 20
49.6031820310725
 11
-20.9780692881563
 21
86.4193006834939
  0
LINE
  5
7E
100
AcDbEntity
  8
1
  6
CONTINUOUS
100
AcDbLine
 10
1.60881193393485
 20
0.250145949594238
 11
42.2058120594223
 21
40.8471460750815
  0
LINE
  5
7F
100
AcDbEntity
  8
1
  6
CONTINUOUS
100
AcDbLine
 10
-57.7941879405777
 20
53.8458227181918
 11
-23.099389631716
 21
88.5406210270532
  0
LINE
  5
80
100
AcDbEntity
  8
1
  6
CONTINUOUS
100
AcDbLine
 10
-2.63382875318436
 20
0.250145949594238
 11
42.2058120594223
 21
45.0897867622008
  0
LINE
  5
81
100
AcDbEntity
  8
3
  6
CENTER
100
AcDbLine
 10
12.4558120594223
 20
-21.0314600449297
 11
12.4558120594223
 21
-5.34874555040559
  0
LINE
  5
83
100
AcDbEntity
  8
1
  6
CONTINUOUS
100
AcDbLine
 10
14.2058120594223
 20
-18.5123540504056
 11
14.2058120594223
 21
-15.799854050406
  0
LINE
  5
84
100
AcDbEntity
  8
1
  6
CONTINUOUS
100
AcDbLine
 10
14.2058120594223
 20
-14.7498540504058
 11
14.2058120594223
 21
-6.64985405040587
  0
LINE
  5
85
100
AcDbEntity
  8
1
  6
CONTINUOUS
100
AcDbLine
 10
10.7058120594223
 20
-18.5123540504056
 11
10.7058120594223
 21
-15.799854050406
  0
LINE
  5
86
100
AcDbEntity
  8
1
  6
CONTINUOUS
100
AcDbLine
 10
10.7058120594223
 20
-14.7498540504058
 11
10.7058120594223
 21
-6.64985405040587
  0
LINE
  5
87
100
AcDbEntity
  8
1
  6
CONTINUOUS
100
AcDbLine
 10
9.61206205942228
 20
-18.9498540504056
 11
15.2995620594223
 21
-18.9498540504056
  0
LINE
  5
88
100
AcDbEntity
  8
1
  6
DASHED
100
AcDbLine
 10
11.1433120594223
 20
-20.6998540504056
 11
11.1433120594223
 21
-18.9498540504056
  0
LINE
  5
89
100
AcDbEntity
  8
1
  6
DASHED
100
AcDbLine
 10
13.7683120594223
 20
-20.6998540504056
 11
13.7683120594223
 21
-18.9498540504056
  0
LINE
  5
8A
100
AcDbEntity
  8
1
  6
CONTINUOUS
100
AcDbLine
 10
10.7058120594223
 20
-20.2623540504056
 11
14.2058120594223
 21
-20.2623540504056
  0
LINE
  5
8B
100
AcDbEntity
  8
1
  6
CONTINUOUS
100
AcDbLine
 10
8.95581205942228
 20
-15.799854050406
 11
15.9558120594223
 21
-15.799854050406
  0
LINE
  5
8C
100
AcDbEntity
  8
1
  6
CONTINUOUS
100
AcDbLine
 10
9.47542730169268
 20
-6.34985405040569
 11
15.4361968171518
 21
-6.34985405040569
  0
LINE
  5
8D
100
AcDbEntity
  8
1
  6
DASHED
100
AcDbLine
 10
10.4558120594223
 20
-8.74985405040578
 11
10.4558120594223
 21
-11.9998540504058
  0
LINE
  5
8E
100
AcDbEntity
  8
1
  6
DASHED
100
AcDbLine
 10
11.1433120594223
 20
-14.7498540504058
 11
11.1433120594223
 21
-8.74985405040578
  0
LINE
  5
8F
100
AcDbEntity
  8
1
  6
DASHED
100
AcDbLine
 10
13.7683120594223
 20
-14.7498540504058
 11
13.7683120594223
 21
-8.74985405040578
  0
LINE
  5
90
100
AcDbEntity
  8
1
  6
DASHED
100
AcDbLine
 10
14.4558120594223
 20
-8.74985405040578
 11
14.4558120594223
 21
-11.9914212212116
  0
LWPOLYLINE
  5
91
100
AcDbEntity
  8
1
  6
CONTINUOUS
100
AcDbPolyline
 90
        9
 70
     1
 43
0.0
 10
15.9558120594223
 20
-8.74985405040578
 10
15.9558120594223
 20
-6.64985405040587
 10
15.4361968171518
 20
-6.34985405040569
 42
0.104706458112183
 10
14.2058120594223
 20
-6.64985405040587
 42
0.171428571428674
 10
10.7058120594223
 20
-6.64985405040587
 42
0.104706458112155
 10
9.47542730169268
 20
-6.34985405040569
 10
8.95581205942228
 20
-6.64985405040587
 10
8.95581205942228
 20
-8.74985405040578
 10
15.9558120594223
 20
-8.74985405040578
  0
LWPOLYLINE
  5
92
100
AcDbEntity
  8
1
  6
CONTINUOUS
100
AcDbPolyline
 90
        8
 70
     0
 43
0.0
 10
15.9558120594223
 20
-15.2748540504059
 10
15.9558120594223
 20
-18.6217290504056
 10
15.2995620594223
 20
-18.9498540504056
 42
-0.185247789132785
 10
14.2058120594223
 20
-18.5123540504056
 42
-0.25
 10
10.7058120594223
 20
-18.5123540504056
 42
-0.185247789133262
 10
9.61206205941908
 20
-18.9498540504056
 10
8.95581205942228
 20
-18.6217290504056
 10
8.95581205942228
 20
-15.2748540504059
  0
LWPOLYLINE
  5
93
100
AcDbEntity
  8
1
  6
CONTINUOUS
100
AcDbPolyline
 90
        6
 70
     0
 43
0.0
 10
10.7058120594223
 20
-18.9498540504056
 10
10.7058120594223
 20
-20.2623540504056
 10
11.1433120594223
 20
-20.6998540504056
 10
13.7683120594223
 20
-20.6998540504056
 10
14.2058120594223
 20
-20.2623540504056
 10
14.2058120594223
 20
-18.9498540504056
  0
LWPOLYLINE
  5
94
100
AcDbEntity
  8
1
  6
CONTINUOUS
100
AcDbPolyline
 90
        5
 70
     1
 43
0.0
 10
7.86206205942225
 20
-14.7498540504058
 10
17.0495620594223
 20
-14.7498540504058
 10
17.0495620594223
 20
-15.2748540504059
 10
7.86206205942225
 20
-15.2748540504059
 10
7.86206205942225
 20
-14.7498540504058
  0
DIMENSION
  5
A4
100
AcDbEntity
  8
3
  6
CONTINUOUS
100
AcDbDimension
  2
*D1
 10
-104.077852643947
 20
-14.7500039910737
 11
-104.077847220891
 21
-7.24992930065143
 70
    32
  3
ISO-25_0-333333
100
AcDbAlignedDimension
 13
-47.7941879405777
 23
0.250145949594238
 14
-44.7941879405777
 24
-14.7500039910737
 50
270.0
100
AcDbRotatedDimension
  0
DIMENSION
  5
B4
100
AcDbEntity
  8
3
  6
CONTINUOUS
100
AcDbDimension
  2
*D2
 10
-104.077853282742
 20
-14.7500022335392
 11
-104.077854850285
 21
-33.7500017798995
 70
    32
  3
ISO-25_0-333333
100
AcDbAlignedDimension
 13
-67.4941879405778
 23
-52.7500039910738
 14
-79.0528131212832
 24
-14.7500022335392
 50
90.0
100
AcDbRotatedDimension
  0
DIMENSION
  5
C4
100
AcDbEntity
  8
3
  6
CONTINUOUS
100
AcDbDimension
  2
*D3
 10
-86.9753132729007
 20
-17.7500039910737
 11
-86.9753081583908
 21
-35.2500055945967
 70
    32
  3
ISO-25_0-333333
100
AcDbAlignedDimension
 13
-71.9941877498429
 23
-52.7500039918762
 14
-67.7941879405777
 24
-17.7500039910737
 50
90.0
100
AcDbRotatedDimension
  0
DIMENSION
  5
D6
100
AcDbEntity
  8
3
  6
CONTINUOUS
100
AcDbDimension
  2
*D4
 10
-86.9753135814469
 20
-14.7500022335392
 11
-86.9753081583908
 21
-8.22500216136921
 70
    32
  3
ISO-25_0-333333
100
AcDbAlignedDimension
 13
-72.2941879405777
 23
-17.7500022335392
 14
-71.0045589990053
 24
-14.7500022335392
 50
90.0
100
AcDbRotatedDimension
1001
ACAD
1000
DSTYLE
1002
{
1070
   280
1070
     2
1002
}
  0
DIMENSION
  5
E4
100
AcDbEntity
  8
3
  6
CONTINUOUS
100
AcDbDimension
  2
*D5
 10
-57.7941879405777
 20
72.2583301640034
 11
-7.79418800114895
 21
72.2583333336259
 70
    32
  3
ISO-25_0-333333
100
AcDbAlignedDimension
 13
42.2058120594223
 23
76.0310887123253
 14
-57.7941879405777
 24
71.1803991501971
 50
180.0
100
AcDbRotatedDimension
1001
ACAD
1000
DSTYLE
1002
{
1070
    75
1070
     1
1070
    76
1070
     1
1002
}
  0
DIMENSION
  5
F4
100
AcDbEntity
  8
3
  6
CONTINUOUS
100
AcDbDimension
  2
*D6
 10
-67.7941879405777
 20
33.452813666978
 11
-77.1035620951584
 21
33.4528218590165
 70
    32
  3
ISO-25_0-333333
100
AcDbAlignedDimension
 13
-57.7941879405777
 23
35.4739343178648
 14
-67.7941879405777
 24
-18.013414778154
 50
180.0
100
AcDbRotatedDimension
1001
ACAD
1000
DSTYLE
1002
{
1070
    75
1070
     1
1070
   280
1070
     2
1002
}
  0
MTEXT
  5
F5
100
AcDbEntity
  8
4
  6
CONTINUOUS
100
AcDbMText
 10
56.390223762996
 20
59.1979237877274
 40
8.1
 41
0.0
 11
1.0
 21
0.0
 71
     7
 72
     5
  7
STANDARD
  1
{\T1.03125;\W0.666667;Ls-65X65X6}
  0
LINE
  5
F7
100
AcDbEntity
  8
4
  6
CONTINUOUS
100
AcDbLine
 10
45.0632858276367
 20
40.6771278381348
 11
54.8902549743652
 21
57.6979141235352
  0
LINE
  5
F8
100
AcDbEntity
  8
4
  6
CONTINUOUS
100
AcDbLine
 10
54.8902549743652
 20
57.6979141235352
 11
112.058944702148
 21
57.6979141235352
  0
INSERT
  5
F9
100
AcDbEntity
  8
4
  6
CONTINUOUS
100
AcDbBlockReference
  2
MARK1_1
 10
45.0632660603592
 20
40.6771336876298
 41
6.0
 42
6.0
 50
60.0
  0
MTEXT
  5
FB
100
AcDbEntity
  8
4
  6
CONTINUOUS
100
AcDbMText
 10
100.402389595515
 20
55.4758336388016
 40
8.1
 41
0.0
 11
1.0
 21
0.0
 71
     3
 72
     5
  7
BIGFONT
  1
{\T0.95;\W1.05263;別途工事}
  0
MTEXT
  5
FC
100
AcDbEntity
  8
4
  6
CONTINUOUS
100
AcDbMText
 10
-88.1319442057538
 20
21.4474812828446
 40
8.1
 41
0.0
 11
1.0
 21
0.0
 71
     9
 72
     5
  7
BIGFONT
  1
{\T0.95;\W1.05263;コーキング}
  0
LINE
  5
FD
100
AcDbEntity
  8
4
  6
CONTINUOUS
100
AcDbLine
 10
-53.5706825256348
 20
-7.93042469024658
 11
-86.631965637207
 21
19.9474773406982
  0
LINE
  5
FE
100
AcDbEntity
  8
4
  6
CONTINUOUS
100
AcDbLine
 10
-86.631965637207
 20
19.9474773406982
 11
-136.206954956055
 21
19.9474773406982
  0
INSERT
  5
FF
100
AcDbEntity
  8
4
  6
CONTINUOUS
100
AcDbBlockReference
  2
MARK1_1
 10
-53.5707022929122
 20
-7.93042551647175
 41
6.0
 42
6.0
 50
140.0
  0
LWPOLYLINE
  5
100
100
AcDbEntity
  8
1
  6
CONTINUOUS
100
AcDbPolyline
 90
       75
 70
     1
 43
0.0
 10
-62.2941879405777
 20
-49.7500039910738
 10
66.9058120594222
 20
-49.7500039910738
 42
0.414213562372803
 10
67.2058120594223
 20
-49.4500039910737
 10
67.2058120594223
 20
-40.0500039910738
 42
0.414213562373099
 10
66.9058120594222
 20
-39.7500039910738
 10
66.1686178726786
 20
-39.7500039910738
 42
0.253856790443513
 10
65.9170847877884
 20
-39.8865074858951
 10
64.8782286316618
 20
-41.4847477260899
 42
0.429852189278356
 10
64.9798449805051
 20
-41.9080999070831
 10
65.8557287954691
 20
-42.4134174926393
 42
-0.268035059522726
 10
66.0058120594222
 20
-42.6732731684538
 10
66.0058120594223
 20
-44.3500039910738
 42
-0.414213562372675
 10
65.7058120594223
 20
-44.6500039910738
 10
61.9058120594223
 20
-44.6500039910738
 42
-0.414213562372454
 10
61.6058120594222
 20
-44.3500039910738
 10
61.6058120594222
 20
-40.8500039910738
 42
0.414213562373192
 10
60.6058120594222
 20
-39.8500039910738
 10
52.3058120594223
 20
-39.8500039910738
 42
-0.414213562372996
 10
50.9058120594223
 20
-38.4500039910738
 10
50.9058120594223
 20
-34.6244602557276
 42
0.24539268395696
 10
50.820097773708
 20
-34.4603298943979
 42
-0.522232967867297
 10
50.820097773708
 20
-33.6396780877496
 42
0.245392683956766
 10
50.9058120594223
 20
-33.47554772642
 10
50.9058120594223
 20
-29.9732731684539
 42
-0.268035059522719
 10
51.0558953233754
 20
-29.7134174926393
 10
51.9317791383394
 20
-29.2080999070831
 42
0.429852189278606
 10
52.0333954871828
 20
-28.7847477260899
 10
50.9945393310562
 20
-27.1865074858951
 42
0.253856790444135
 10
50.743006246166
 20
-27.0500039910738
 10
48.2058120594223
 20
-27.0500039910738
 42
0.414213562373192
 10
47.2058120594223
 20
-28.0500039910738
 42
0.414213562373498
 10
47.4058120594223
 20
-28.2500039910738
 10
49.4058120594223
 20
-28.2500039910738
 42
-0.414213562373021
 10
49.7058120594223
 20
-28.5500039910738
 10
49.7058120594223
 20
-38.4500039910738
 42
0.414213562373078
 10
52.2058120594223
 20
-40.9500039910738
 10
60.2058120594223
 20
-40.9500039910738
 42
-0.414213562373029
 10
60.5058120594223
 20
-41.2500039910738
 10
60.5058120594223
 20
-44.7500039910738
 42
0.414213562373092
 10
61.5058120594223
 20
-45.7500039910738
 10
65.6058120594222
 20
-45.7500039910738
 42
-0.414213562373391
 10
66.1058120594222
 20
-46.2500039910738
 10
66.1058120594222
 20
-48.1500039910738
 42
-0.4142135623732
 10
65.6058120594222
 20
-48.6500039910738
 10
-66.3941879405778
 20
-48.6500039910738
 42
-0.414213562372938
 10
-66.6941879405777
 20
-48.3500039910738
 10
-66.6941879405777
 20
-18.9792543307816
 42
-0.376715072980334
 10
-66.4329896957981
 20
-18.6817742074257
 10
-46.732989695798
 20
-16.1122089900344
 42
-0.452733422661775
 10
-46.3941879405778
 20
-16.4096891133903
 10
-46.3941879405778
 20
-17.8215481487503
 42
-0.376715072980296
 10
-46.6553861853574
 20
-18.1190282721062
 10
-50.0329896957981
 20
-18.5595852517289
 42
0.376715072980242
 10
-50.2941879405777
 20
-18.8570653750848
 10
-50.2941879405777
 20
-19.3613007448562
 42
0.452733422661503
 10
-49.9553861853574
 20
-19.6587808682121
 10
-46.1648487565099
 20
-19.1643629427102
 42
0.376715072980046
 10
-45.2941879405777
 20
-18.172762531524
 10
-45.2941879405777
 20
-16.5500039910737
 42
-0.414213562373057
 10
-44.9941879405778
 20
-16.2500039910737
 10
-43.0941879405777
 20
-16.2500039910737
 42
0.414213562372819
 10
-42.7941879405777
 20
-15.9500039910737
 10
-42.7941879405777
 20
-12.7500039910737
 42
0.414213562373055
 10
-43.7941879405777
 20
-11.7500039910737
 10
-44.4941879405778
 20
-11.7500039910737
 42
0.414213562373143
 10
-44.7941879405777
 20
-12.0500039910737
 10
-44.7941879405777
 20
-14.4865932039935
 42
-0.376715072980356
 10
-45.0553861853574
 20
-14.7840733273493
 10
-67.5329896957981
 20
-17.7159346547981
 42
0.376715072980237
 10
-67.7941879405777
 20
-18.013414778154
 10
-67.7941879405777
 20
-52.4500039910737
 42
0.414213562372979
 10
-67.4941879405778
 20
-52.7500039910738
 10
-65.5805232856088
 20
-52.7500039910738
 42
0.38779458240861
 10
-65.2817655269695
 20
-52.4772767183465
 42
-0.387794582408826
 10
-62.2941879405777
 20
-49.7500039910738
  0
LWPOLYLINE
  5
101
100
AcDbEntity
  8
1
  6
CONTINUOUS
100
AcDbPolyline
 90
      472
 70
     1
 43
0.0
 10
46.9058120594223
 20
-30.7500039910738
 10
45.7058120594223
 20
-30.7500039910738
 42
-0.414213562373092
 10
44.7058120594223
 20
-29.7500039910738
 10
44.7058120594223
 20
-16.7500039910737
 42
0.414213562373099
 10
42.7058120594223
 20
-14.7500039910737
 10
-37.1652838237131
 20
-14.7500039910737
 42
0.459804496854018
 10
-42.1067891431765
 20
-20.5125819724724
 10
-37.9869160686007
 20
-47.2093594957241
 42
-1.00000000000001
 10
-40.4576687283324
 20
-47.5906484864234
 10
-45.2408307370462
 20
-16.5957586699576
 42
-0.459804496854462
 10
-44.9443404178784
 20
-16.2500039910737
 10
-43.0941879405777
 20
-16.2500039910737
 42
0.414213562372893
 10
-42.7941879405777
 20
-15.9500039910737
 10
-42.7941879405777
 20
-12.4742680597857
 42
-0.414213562373173
 10
-42.4941879405778
 20
-12.1742680597857
 10
-42.3427160780016
 20
-12.1742680597857
 42
0.198912367379733
 10
-42.1305840436456
 20
-12.0864000941416
 10
-42.0063199749337
 20
-11.9621360254297
 42
-0.198912367379366
 10
-41.7941879405777
 20
-11.8742680597856
 42
-0.198912367379627
 10
-41.5820559062218
 20
-11.9621360254297
 10
-41.5063199749337
 20
-12.0378719567178
 42
0.414213562373105
 10
-41.0820559062218
 20
-12.0378719567178
 10
-41.0063199749337
 20
-11.9621360254297
 42
-0.198912367379366
 10
-40.7941879405777
 20
-11.8742680597856
 42
-0.198912367379627
 10
-40.5820559062218
 20
-11.9621360254297
 10
-40.5063199749337
 20
-12.0378719567178
 42
0.414213562373105
 10
-40.0820559062218
 20
-12.0378719567178
 10
-40.0063199749337
 20
-11.9621360254297
 42
-0.198912367379366
 10
-39.7941879405777
 20
-11.8742680597856
 42
-0.198912367379627
 10
-39.5820559062218
 20
-11.9621360254297
 10
-39.5063199749337
 20
-12.0378719567178
 42
0.414213562373105
 10
-39.0820559062218
 20
-12.0378719567178
 10
-39.0063199749337
 20
-11.9621360254297
 42
-0.198912367379366
 10
-38.7941879405777
 20
-11.8742680597856
 42
-0.198912367379627
 10
-38.5820559062218
 20
-11.9621360254297
 10
-38.5063199749337
 20
-12.0378719567178
 42
0.414213562373105
 10
-38.0820559062218
 20
-12.0378719567178
 10
-38.0063199749337
 20
-11.9621360254297
 42
-0.198912367379366
 10
-37.7941879405777
 20
-11.8742680597856
 42
-0.198912367379627
 10
-37.5820559062218
 20
-11.9621360254297
 10
-37.5063199749337
 20
-12.0378719567178
 42
0.414213562373105
 10
-37.0820559062218
 20
-12.0378719567178
 10
-37.0063199749337
 20
-11.9621360254297
 42
-0.198912367379366
 10
-36.7941879405777
 20
-11.8742680597856
 42
-0.198912367379627
 10
-36.5820559062218
 20
-11.9621360254297
 10
-36.5063199749337
 20
-12.0378719567178
 42
0.414213562373105
 10
-36.0820559062218
 20
-12.0378719567178
 10
-36.0063199749337
 20
-11.9621360254297
 42
-0.198912367379366
 10
-35.7941879405777
 20
-11.8742680597856
 42
-0.198912367379627
 10
-35.5820559062218
 20
-11.9621360254297
 10
-35.5063199749337
 20
-12.0378719567178
 42
0.414213562373105
 10
-35.0820559062218
 20
-12.0378719567178
 10
-35.0063199749337
 20
-11.9621360254297
 42
-0.198912367379366
 10
-34.7941879405777
 20
-11.8742680597856
 42
-0.198912367379627
 10
-34.5820559062218
 20
-11.9621360254297
 10
-34.5063199749337
 20
-12.0378719567178
 42
0.414213562373105
 10
-34.0820559062218
 20
-12.0378719567178
 10
-34.0063199749337
 20
-11.9621360254297
 42
-0.198912367379366
 10
-33.7941879405777
 20
-11.8742680597856
 42
-0.198912367379627
 10
-33.5820559062218
 20
-11.9621360254297
 10
-33.5063199749337
 20
-12.0378719567178
 42
0.414213562373105
 10
-33.0820559062218
 20
-12.0378719567178
 10
-33.0063199749337
 20
-11.9621360254297
 42
-0.198912367379413
 10
-32.7941879405777
 20
-11.8742680597856
 42
-0.198912367379627
 10
-32.5820559062218
 20
-11.9621360254297
 10
-32.5063199749337
 20
-12.0378719567178
 42
0.414213562373105
 10
-32.0820559062218
 20
-12.0378719567178
 10
-32.0063199749337
 20
-11.9621360254297
 42
-0.198912367379416
 10
-31.7941879405777
 20
-11.8742680597856
 42
-0.198912367379645
 10
-31.5820559062218
 20
-11.9621360254297
 10
-31.5063199749337
 20
-12.0378719567178
 42
0.414213562373121
 10
-31.0820559062218
 20
-12.0378719567178
 10
-31.0063199749337
 20
-11.9621360254297
 42
-0.198912367379388
 10
-30.7941879405777
 20
-11.8742680597856
 42
-0.198912367379645
 10
-30.5820559062218
 20
-11.9621360254297
 10
-30.5063199749337
 20
-12.0378719567178
 42
0.414213562373121
 10
-30.0820559062218
 20
-12.0378719567178
 10
-30.0063199749337
 20
-11.9621360254297
 42
-0.198912367379388
 10
-29.7941879405777
 20
-11.8742680597856
 42
-0.198912367379645
 10
-29.5820559062218
 20
-11.9621360254297
 10
-29.5063199749337
 20
-12.0378719567178
 42
0.414213562373121
 10
-29.0820559062218
 20
-12.0378719567178
 10
-29.0063199749337
 20
-11.9621360254297
 42
-0.198912367379388
 10
-28.7941879405777
 20
-11.8742680597856
 42
-0.198912367379645
 10
-28.5820559062218
 20
-11.9621360254297
 10
-28.5063199749337
 20
-12.0378719567178
 42
0.414213562373121
 10
-28.0820559062218
 20
-12.0378719567178
 10
-28.0063199749337
 20
-11.9621360254297
 42
-0.198912367379388
 10
-27.7941879405777
 20
-11.8742680597856
 42
-0.198912367379645
 10
-27.5820559062218
 20
-11.9621360254297
 10
-27.5063199749337
 20
-12.0378719567178
 42
0.414213562373121
 10
-27.0820559062218
 20
-12.0378719567178
 10
-27.0063199749337
 20
-11.9621360254297
 42
-0.198912367379388
 10
-26.7941879405777
 20
-11.8742680597856
 42
-0.198912367379645
 10
-26.5820559062218
 20
-11.9621360254297
 10
-26.5063199749337
 20
-12.0378719567178
 42
0.414213562373121
 10
-26.0820559062218
 20
-12.0378719567178
 10
-26.0063199749337
 20
-11.9621360254297
 42
-0.198912367379388
 10
-25.7941879405777
 20
-11.8742680597856
 42
-0.198912367379645
 10
-25.5820559062218
 20
-11.9621360254297
 10
-25.5063199749337
 20
-12.0378719567178
 42
0.414213562373121
 10
-25.0820559062218
 20
-12.0378719567178
 10
-25.0063199749337
 20
-11.9621360254297
 42
-0.198912367379388
 10
-24.7941879405777
 20
-11.8742680597856
 42
-0.198912367379645
 10
-24.5820559062218
 20
-11.9621360254297
 10
-24.5063199749337
 20
-12.0378719567178
 42
0.414213562373121
 10
-24.0820559062218
 20
-12.0378719567178
 10
-24.0063199749337
 20
-11.9621360254297
 42
-0.198912367379388
 10
-23.7941879405777
 20
-11.8742680597856
 42
-0.198912367379645
 10
-23.5820559062218
 20
-11.9621360254297
 10
-23.5063199749337
 20
-12.0378719567178
 42
0.414213562373121
 10
-23.0820559062218
 20
-12.0378719567178
 10
-23.0063199749337
 20
-11.9621360254297
 42
-0.198912367379388
 10
-22.7941879405777
 20
-11.8742680597856
 42
-0.198912367379645
 10
-22.5820559062218
 20
-11.9621360254297
 10
-22.5063199749337
 20
-12.0378719567178
 42
0.414213562373121
 10
-22.0820559062218
 20
-12.0378719567178
 10
-22.0063199749337
 20
-11.9621360254297
 42
-0.198912367379388
 10
-21.7941879405777
 20
-11.8742680597856
 42
-0.198912367379645
 10
-21.5820559062218
 20
-11.9621360254297
 10
-21.5063199749337
 20
-12.0378719567178
 42
0.414213562373121
 10
-21.0820559062218
 20
-12.0378719567178
 10
-21.0063199749337
 20
-11.9621360254297
 42
-0.198912367379388
 10
-20.7941879405777
 20
-11.8742680597856
 42
-0.198912367379645
 10
-20.5820559062218
 20
-11.9621360254297
 10
-20.5063199749337
 20
-12.0378719567178
 42
0.414213562373121
 10
-20.0820559062218
 20
-12.0378719567178
 10
-20.0063199749337
 20
-11.9621360254297
 42
-0.198912367379388
 10
-19.7941879405777
 20
-11.8742680597856
 42
-0.198912367379645
 10
-19.5820559062218
 20
-11.9621360254297
 10
-19.5063199749337
 20
-12.0378719567178
 42
0.414213562373121
 10
-19.0820559062218
 20
-12.0378719567178
 10
-19.0063199749337
 20
-11.9621360254297
 42
-0.198912367379388
 10
-18.7941879405777
 20
-11.8742680597856
 42
-0.198912367379645
 10
-18.5820559062218
 20
-11.9621360254297
 10
-18.5063199749337
 20
-12.0378719567178
 42
0.414213562373121
 10
-18.0820559062218
 20
-12.0378719567178
 10
-18.0063199749337
 20
-11.9621360254297
 42
-0.198912367379388
 10
-17.7941879405777
 20
-11.8742680597856
 42
-0.198912367379645
 10
-17.5820559062218
 20
-11.9621360254297
 10
-17.5063199749337
 20
-12.0378719567178
 42
0.414213562373121
 10
-17.0820559062218
 20
-12.0378719567178
 10
-17.0063199749337
 20
-11.9621360254297
 42
-0.198912367379388
 10
-16.7941879405777
 20
-11.8742680597856
 42
-0.198912367379645
 10
-16.5820559062218
 20
-11.9621360254297
 10
-16.5063199749337
 20
-12.0378719567178
 42
0.414213562373121
 10
-16.0820559062218
 20
-12.0378719567178
 10
-16.0063199749337
 20
-11.9621360254297
 42
-0.198912367379394
 10
-15.7941879405777
 20
-11.8742680597856
 42
-0.198912367379651
 10
-15.5820559062218
 20
-11.9621360254297
 10
-15.5063199749337
 20
-12.0378719567178
 42
0.414213562373129
 10
-15.0820559062218
 20
-12.0378719567178
 10
-15.0063199749337
 20
-11.9621360254297
 42
-0.198912367379394
 10
-14.7941879405777
 20
-11.8742680597856
 42
-0.198912367379651
 10
-14.5820559062218
 20
-11.9621360254297
 10
-14.5063199749337
 20
-12.0378719567178
 42
0.414213562373129
 10
-14.0820559062218
 20
-12.0378719567178
 10
-14.0063199749337
 20
-11.9621360254297
 42
-0.198912367379394
 10
-13.7941879405777
 20
-11.8742680597856
 42
-0.198912367379651
 10
-13.5820559062218
 20
-11.9621360254297
 10
-13.5063199749337
 20
-12.0378719567178
 42
0.414213562373129
 10
-13.0820559062218
 20
-12.0378719567178
 10
-13.0063199749337
 20
-11.9621360254297
 42
-0.198912367379394
 10
-12.7941879405777
 20
-11.8742680597856
 42
-0.198912367379651
 10
-12.5820559062218
 20
-11.9621360254297
 10
-12.5063199749337
 20
-12.0378719567178
 42
0.414213562373129
 10
-12.0820559062218
 20
-12.0378719567178
 10
-12.0063199749337
 20
-11.9621360254297
 42
-0.198912367379394
 10
-11.7941879405777
 20
-11.8742680597856
 42
-0.198912367379651
 10
-11.5820559062218
 20
-11.9621360254297
 10
-11.5063199749337
 20
-12.0378719567178
 42
0.414213562373129
 10
-11.0820559062218
 20
-12.0378719567178
 10
-11.0063199749337
 20
-11.9621360254297
 42
-0.198912367379545
 10
-10.7941879405778
 20
-11.8742680597856
 42
-0.198912367379545
 10
-10.5820559062218
 20
-11.9621360254297
 10
-10.5063199749337
 20
-12.0378719567178
 42
0.414213562373167
 10
-10.0820559062218
 20
-12.0378719567178
 10
-10.0063199749337
 20
-11.9621360254297
 42
-0.198912367379545
 10
-9.79418794057775
 20
-11.8742680597856
 42
-0.198912367379545
 10
-9.58205590622182
 20
-11.9621360254297
 10
-9.50631997493368
 20
-12.0378719567178
 42
0.414213562373167
 10
-9.08205590622182
 20
-12.0378719567178
 10
-9.00631997493368
 20
-11.9621360254297
 42
-0.19891236737953
 10
-8.79418794057775
 20
-11.8742680597856
 42
-0.198912367379545
 10
-8.58205590622182
 20
-11.9621360254297
 10
-8.50631997493368
 20
-12.0378719567178
 42
0.414213562373167
 10
-8.08205590622182
 20
-12.0378719567178
 10
-8.00631997493368
 20
-11.9621360254297
 42
-0.198912367379542
 10
-7.79418794057775
 20
-11.8742680597856
 42
-0.198912367379542
 10
-7.58205590622182
 20
-11.9621360254297
 10
-7.50631997493368
 20
-12.0378719567178
 42
0.414213562373167
 10
-7.08205590622182
 20
-12.0378719567178
 10
-7.00631997493368
 20
-11.9621360254297
 42
-0.198912367379542
 10
-6.79418794057775
 20
-11.8742680597856
 42
-0.198912367379542
 10
-6.58205590622182
 20
-11.9621360254297
 10
-6.50631997493368
 20
-12.0378719567178
 42
0.414213562373167
 10
-6.08205590622182
 20
-12.0378719567178
 10
-6.00631997493368
 20
-11.9621360254297
 42
-0.198912367379542
 10
-5.79418794057775
 20
-11.8742680597856
 42
-0.198912367379542
 10
-5.58205590622182
 20
-11.9621360254297
 10
-5.50631997493368
 20
-12.0378719567178
 42
0.414213562373167
 10
-5.08205590622182
 20
-12.0378719567178
 10
-5.00631997493368
 20
-11.9621360254297
 42
-0.198912367379542
 10
-4.79418794057775
 20
-11.8742680597856
 42
-0.198912367379542
 10
-4.58205590622182
 20
-11.9621360254297
 10
-4.50631997493368
 20
-12.0378719567178
 42
0.414213562373167
 10
-4.08205590622182
 20
-12.0378719567178
 10
-4.00631997493368
 20
-11.9621360254297
 42
-0.198912367379527
 10
-3.79418794057775
 20
-11.8742680597856
 42
-0.198912367379542
 10
-3.58205590622182
 20
-11.9621360254297
 10
-3.50631997493368
 20
-12.0378719567178
 42
0.414213562373167
 10
-3.08205590622182
 20
-12.0378719567178
 10
-3.00631997493368
 20
-11.9621360254297
 42
-0.198912367379542
 10
-2.79418794057775
 20
-11.8742680597856
 42
-0.198912367379542
 10
-2.58205590622182
 20
-11.9621360254297
 10
-2.50631997493368
 20
-12.0378719567178
 42
0.414213562373167
 10
-2.08205590622182
 20
-12.0378719567178
 10
-2.00631997493369
 20
-11.9621360254297
 42
-0.198912367379524
 10
-1.79418794057775
 20
-11.8742680597856
 42
-0.198912367379524
 10
-1.58205590622182
 20
-11.9621360254297
 10
-1.50631997493369
 20
-12.0378719567178
 42
0.414213562373163
 10
-1.08205590622182
 20
-12.0378719567178
 10
-1.00631997493369
 20
-11.9621360254297
 42
-0.198912367379524
 10
-0.794187940577753
 20
-11.8742680597856
 42
-0.198912367379523
 10
-0.582055906221821
 20
-11.9621360254297
 10
-0.506319974933685
 20
-12.0378719567178
 42
0.414213562373163
 10
-0.0820559062218214
 20
-12.0378719567178
 10
-0.0063199749336813
 20
-11.9621360254297
 42
-0.198912367379542
 10
0.205812059422249
 20
-11.8742680597856
 42
-0.198912367379541
 10
0.417944093778179
 20
-11.9621360254297
 10
0.493680025066319
 20
-12.0378719567178
 42
0.414213562373167
 10
0.917944093778179
 20
-12.0378719567178
 10
0.993680025066318
 20
-11.9621360254297
 42
-0.198912367379542
 10
1.20581205942225
 20
-11.8742680597856
 42
-0.198912367379541
 10
1.41794409377818
 20
-11.9621360254297
 10
1.49368002506632
 20
-12.0378719567178
 42
0.414213562373167
 10
1.91794409377818
 20
-12.0378719567178
 10
1.99368002506632
 20
-11.9621360254297
 42
-0.198912367379542
 10
2.20581205942225
 20
-11.8742680597856
 42
-0.198912367379542
 10
2.41794409377818
 20
-11.9621360254297
 10
2.49368002506632
 20
-12.0378719567178
 42
0.414213562373167
 10
2.91794409377818
 20
-12.0378719567178
 10
2.99368002506632
 20
-11.9621360254297
 42
-0.198912367379527
 10
3.20581205942225
 20
-11.8742680597856
 42
-0.198912367379542
 10
3.41794409377818
 20
-11.9621360254297
 10
3.49368002506632
 20
-12.0378719567178
 42
0.414213562373167
 10
3.91794409377818
 20
-12.0378719567178
 10
3.99368002506632
 20
-11.9621360254297
 42
-0.198912367379542
 10
4.20581205942225
 20
-11.8742680597856
 42
-0.198912367379542
 10
4.41794409377818
 20
-11.9621360254297
 10
4.49368002506632
 20
-12.0378719567178
 42
0.414213562373167
 10
4.91794409377818
 20
-12.0378719567178
 10
4.99368002506632
 20
-11.9621360254297
 42
-0.198912367379542
 10
5.20581205942225
 20
-11.8742680597856
 42
-0.198912367379542
 10
5.41794409377818
 20
-11.9621360254297
 10
5.49368002506632
 20
-12.0378719567178
 42
0.414213562373167
 10
5.91794409377818
 20
-12.0378719567178
 10
5.99368002506632
 20
-11.9621360254297
 42
-0.198912367379542
 10
6.20581205942225
 20
-11.8742680597856
 42
-0.198912367379542
 10
6.41794409377818
 20
-11.9621360254297
 10
6.49368002506632
 20
-12.0378719567178
 42
0.414213562373167
 10
6.91794409377818
 20
-12.0378719567178
 10
6.99368002506632
 20
-11.9621360254297
 42
-0.198912367379542
 10
7.20581205942225
 20
-11.8742680597856
 42
-0.198912367379542
 10
7.41794409377818
 20
-11.9621360254297
 10
7.49368002506632
 20
-12.0378719567178
 42
0.414213562373167
 10
7.91794409377818
 20
-12.0378719567178
 10
7.99368002506632
 20
-11.9621360254297
 42
-0.198912367379545
 10
8.20581205942225
 20
-11.8742680597856
 42
-0.198912367379545
 10
8.41794409377818
 20
-11.9621360254297
 10
8.49368002506632
 20
-12.0378719567178
 42
0.414213562373167
 10
8.91794409377818
 20
-12.0378719567178
 10
8.99368002506628
 20
-11.9621360254297
 42
-0.198912367379394
 10
9.20581205942228
 20
-11.8742680597856
 42
-0.198912367379651
 10
9.41794409377818
 20
-11.9621360254297
 10
9.49368002506628
 20
-12.0378719567178
 42
0.414213562373129
 10
9.91794409377818
 20
-12.0378719567178
 10
9.99368002506628
 20
-11.9621360254297
 42
-0.198912367379394
 10
10.2058120594223
 20
-11.8742680597856
 42
-0.198912367379651
 10
10.4179440937782
 20
-11.9621360254297
 10
10.4936800250663
 20
-12.0378719567178
 42
0.414213562373129
 10
10.9179440937782
 20
-12.0378719567178
 10
10.9936800250663
 20
-11.9621360254297
 42
-0.198912367379394
 10
11.2058120594223
 20
-11.8742680597856
 42
-0.198912367379651
 10
11.4179440937782
 20
-11.9621360254297
 10
11.4936800250663
 20
-12.0378719567178
 42
0.414213562373129
 10
11.9179440937782
 20
-12.0378719567178
 10
11.9936800250663
 20
-11.9621360254297
 42
-0.198912367379394
 10
12.2058120594223
 20
-11.8742680597856
 42
-0.198912367379651
 10
12.4179440937782
 20
-11.9621360254297
 10
12.4936800250663
 20
-12.0378719567178
 42
0.414213562373129
 10
12.9179440937782
 20
-12.0378719567178
 10
12.9936800250663
 20
-11.9621360254297
 42
-0.198912367379394
 10
13.2058120594223
 20
-11.8742680597856
 42
-0.198912367379651
 10
13.4179440937782
 20
-11.9621360254297
 10
13.4936800250663
 20
-12.0378719567178
 42
0.414213562373129
 10
13.9179440937782
 20
-12.0378719567178
 10
13.9936800250663
 20
-11.9621360254297
 42
-0.198912367379394
 10
14.2058120594223
 20
-11.8742680597856
 42
-0.198912367379651
 10
14.4179440937782
 20
-11.9621360254297
 10
14.4936800250663
 20
-12.0378719567178
 42
0.414213562373129
 10
14.9179440937782
 20
-12.0378719567178
 10
14.9936800250663
 20
-11.9621360254297
 42
-0.198912367379394
 10
15.2058120594223
 20
-11.8742680597856
 42
-0.198912367379651
 10
15.4179440937782
 20
-11.9621360254297
 10
15.4936800250663
 20
-12.0378719567178
 42
0.414213562373129
 10
15.9179440937782
 20
-12.0378719567178
 10
15.9936800250663
 20
-11.9621360254297
 42
-0.198912367379388
 10
16.2058120594223
 20
-11.8742680597856
 42
-0.198912367379645
 10
16.4179440937782
 20
-11.9621360254297
 10
16.4936800250663
 20
-12.0378719567178
 42
0.414213562373121
 10
16.9179440937782
 20
-12.0378719567178
 10
16.9936800250663
 20
-11.9621360254297
 42
-0.198912367379388
 10
17.2058120594223
 20
-11.8742680597856
 42
-0.198912367379645
 10
17.4179440937782
 20
-11.9621360254297
 10
17.4936800250663
 20
-12.0378719567178
 42
0.414213562373121
 10
17.9179440937782
 20
-12.0378719567178
 10
17.9936800250663
 20
-11.9621360254297
 42
-0.198912367379388
 10
18.2058120594223
 20
-11.8742680597856
 42
-0.198912367379645
 10
18.4179440937782
 20
-11.9621360254297
 10
18.4936800250663
 20
-12.0378719567178
 42
0.414213562373121
 10
18.9179440937782
 20
-12.0378719567178
 10
18.9936800250663
 20
-11.9621360254297
 42
-0.198912367379388
 10
19.2058120594223
 20
-11.8742680597856
 42
-0.198912367379645
 10
19.4179440937782
 20
-11.9621360254297
 10
19.4936800250663
 20
-12.0378719567178
 42
0.414213562373121
 10
19.9179440937782
 20
-12.0378719567178
 10
19.9936800250663
 20
-11.9621360254297
 42
-0.198912367379388
 10
20.2058120594223
 20
-11.8742680597856
 42
-0.198912367379645
 10
20.4179440937782
 20
-11.9621360254297
 10
20.4936800250663
 20
-12.0378719567178
 42
0.414213562373121
 10
20.9179440937782
 20
-12.0378719567178
 10
20.9936800250663
 20
-11.9621360254297
 42
-0.198912367379388
 10
21.2058120594223
 20
-11.8742680597856
 42
-0.198912367379645
 10
21.4179440937782
 20
-11.9621360254297
 10
21.4936800250663
 20
-12.0378719567178
 42
0.414213562373121
 10
21.9179440937782
 20
-12.0378719567178
 10
21.9936800250663
 20
-11.9621360254297
 42
-0.198912367379388
 10
22.2058120594223
 20
-11.8742680597856
 42
-0.198912367379645
 10
22.4179440937782
 20
-11.9621360254297
 10
22.4936800250663
 20
-12.0378719567178
 42
0.414213562373121
 10
22.9179440937782
 20
-12.0378719567178
 10
22.9936800250663
 20
-11.9621360254297
 42
-0.198912367379388
 10
23.2058120594223
 20
-11.8742680597856
 42
-0.198912367379645
 10
23.4179440937782
 20
-11.9621360254297
 10
23.4936800250663
 20
-12.0378719567178
 42
0.414213562373121
 10
23.9179440937782
 20
-12.0378719567178
 10
23.9936800250663
 20
-11.9621360254297
 42
-0.198912367379388
 10
24.2058120594223
 20
-11.8742680597856
 42
-0.198912367379645
 10
24.4179440937782
 20
-11.9621360254297
 10
24.4936800250663
 20
-12.0378719567178
 42
0.414213562373121
 10
24.9179440937782
 20
-12.0378719567178
 10
24.9936800250663
 20
-11.9621360254297
 42
-0.198912367379388
 10
25.2058120594223
 20
-11.8742680597856
 42
-0.198912367379645
 10
25.4179440937782
 20
-11.9621360254297
 10
25.4936800250663
 20
-12.0378719567178
 42
0.414213562373121
 10
25.9179440937782
 20
-12.0378719567178
 10
25.9936800250663
 20
-11.9621360254297
 42
-0.198912367379388
 10
26.2058120594223
 20
-11.8742680597856
 42
-0.198912367379645
 10
26.4179440937782
 20
-11.9621360254297
 10
26.4936800250663
 20
-12.0378719567178
 42
0.414213562373121
 10
26.9179440937782
 20
-12.0378719567178
 10
26.9936800250663
 20
-11.9621360254297
 42
-0.198912367379388
 10
27.2058120594223
 20
-11.8742680597856
 42
-0.198912367379645
 10
27.4179440937782
 20
-11.9621360254297
 10
27.4936800250663
 20
-12.0378719567178
 42
0.414213562373121
 10
27.9179440937782
 20
-12.0378719567178
 10
27.9936800250663
 20
-11.9621360254297
 42
-0.198912367379388
 10
28.2058120594223
 20
-11.8742680597856
 42
-0.198912367379645
 10
28.4179440937782
 20
-11.9621360254297
 10
28.4936800250663
 20
-12.0378719567178
 42
0.414213562373121
 10
28.9179440937782
 20
-12.0378719567178
 10
28.9936800250663
 20
-11.9621360254297
 42
-0.198912367379388
 10
29.2058120594223
 20
-11.8742680597856
 42
-0.198912367379645
 10
29.4179440937782
 20
-11.9621360254297
 10
29.4936800250663
 20
-12.0378719567178
 42
0.414213562373121
 10
29.9179440937782
 20
-12.0378719567178
 10
29.9936800250663
 20
-11.9621360254297
 42
-0.198912367379388
 10
30.2058120594223
 20
-11.8742680597856
 42
-0.198912367379645
 10
30.4179440937782
 20
-11.9621360254297
 10
30.4936800250663
 20
-12.0378719567178
 42
0.414213562373121
 10
30.9179440937782
 20
-12.0378719567178
 10
30.9936800250663
 20
-11.9621360254297
 42
-0.198912367379379
 10
31.2058120594223
 20
-11.8742680597856
 42
-0.198912367379644
 10
31.4179440937782
 20
-11.9621360254297
 10
31.4936800250663
 20
-12.0378719567178
 42
0.414213562373129
 10
31.9179440937782
 20
-12.0378719567178
 10
31.9936800250663
 20
-11.9621360254297
 42
-0.198912367379382
 10
32.2058120594223
 20
-11.8742680597856
 42
-0.198912367379627
 10
32.4179440937782
 20
-11.9621360254297
 10
32.4936800250663
 20
-12.0378719567178
 42
0.414213562373105
 10
32.9179440937782
 20
-12.0378719567178
 10
32.9936800250663
 20
-11.9621360254297
 42
-0.198912367379366
 10
33.2058120594223
 20
-11.8742680597856
 42
-0.198912367379627
 10
33.4179440937782
 20
-11.9621360254297
 10
33.4936800250663
 20
-12.0378719567178
 42
0.414213562373105
 10
33.9179440937782
 20
-12.0378719567178
 10
33.9936800250663
 20
-11.9621360254297
 42
-0.198912367379366
 10
34.2058120594223
 20
-11.8742680597856
 42
-0.198912367379627
 10
34.4179440937782
 20
-11.9621360254297
 10
34.4936800250663
 20
-12.0378719567178
 42
0.414213562373105
 10
34.9179440937782
 20
-12.0378719567178
 10
34.9936800250663
 20
-11.9621360254297
 42
-0.198912367379366
 10
35.2058120594223
 20
-11.8742680597856
 42
-0.198912367379627
 10
35.4179440937782
 20
-11.9621360254297
 10
35.4936800250663
 20
-12.0378719567178
 42
0.414213562373105
 10
35.9179440937782
 20
-12.0378719567178
 10
35.9936800250663
 20
-11.9621360254297
 42
-0.198912367379366
 10
36.2058120594223
 20
-11.8742680597856
 42
-0.198912367379627
 10
36.4179440937782
 20
-11.9621360254297
 10
36.4936800250663
 20
-12.0378719567178
 42
0.414213562373105
 10
36.9179440937782
 20
-12.0378719567178
 10
36.9936800250663
 20
-11.9621360254297
 42
-0.198912367379366
 10
37.2058120594223
 20
-11.8742680597856
 42
-0.198912367379627
 10
37.4179440937782
 20
-11.9621360254297
 10
37.4936800250663
 20
-12.0378719567178
 42
0.414213562373105
 10
37.9179440937782
 20
-12.0378719567178
 10
37.9936800250663
 20
-11.9621360254297
 42
-0.198912367379366
 10
38.2058120594223
 20
-11.8742680597856
 42
-0.198912367379627
 10
38.4179440937782
 20
-11.9621360254297
 10
38.4936800250663
 20
-12.0378719567178
 42
0.414213562373105
 10
38.9179440937782
 20
-12.0378719567178
 10
38.9936800250663
 20
-11.9621360254297
 42
-0.198912367379366
 10
39.2058120594223
 20
-11.8742680597856
 42
-0.198912367379627
 10
39.4179440937782
 20
-11.9621360254297
 10
39.4936800250663
 20
-12.0378719567178
 42
0.414213562373105
 10
39.9179440937782
 20
-12.0378719567178
 10
39.9936800250663
 20
-11.9621360254297
 42
-0.198912367379366
 10
40.2058120594223
 20
-11.8742680597856
 42
-0.198912367379627
 10
40.4179440937782
 20
-11.9621360254297
 10
40.4936800250663
 20
-12.0378719567178
 42
0.414213562373105
 10
40.9179440937782
 20
-12.0378719567178
 10
40.9936800250663
 20
-11.9621360254297
 42
-0.198912367379366
 10
41.2058120594223
 20
-11.8742680597856
 42
-0.198912367379627
 10
41.4179440937782
 20
-11.9621360254297
 10
41.4936800250663
 20
-12.0378719567178
 42
0.414213562373105
 10
41.9179440937782
 20
-12.0378719567178
 10
41.9936800250663
 20
-11.9621360254297
 42
-0.198912367379366
 10
42.2058120594223
 20
-11.8742680597856
 42
-0.198912367379627
 10
42.4179440937782
 20
-11.9621360254297
 10
42.4936800250663
 20
-12.0378719567178
 42
0.414213562373105
 10
42.9179440937782
 20
-12.0378719567178
 10
42.9936800250663
 20
-11.9621360254297
 42
-0.198912367379366
 10
43.2058120594223
 20
-11.8742680597856
 42
-0.198912367379627
 10
43.4179440937782
 20
-11.9621360254297
 10
43.4936800250663
 20
-12.0378719567178
 42
0.414213562373105
 10
43.9179440937782
 20
-12.0378719567178
 10
43.9936800250663
 20
-11.9621360254297
 42
-0.198912367379366
 10
44.2058120594223
 20
-11.8742680597856
 42
-0.198912367379627
 10
44.4179440937782
 20
-11.9621360254297
 10
44.4936800250663
 20
-12.0378719567178
 42
0.414213562373105
 10
44.9179440937782
 20
-12.0378719567178
 10
44.9936800250663
 20
-11.9621360254297
 42
-0.198912367379366
 10
45.2058120594223
 20
-11.8742680597856
 42
-0.198912367379627
 10
45.4179440937782
 20
-11.9621360254297
 10
45.4936800250663
 20
-12.0378719567178
 42
0.414213562373105
 10
45.9179440937782
 20
-12.0378719567178
 10
45.9936800250663
 20
-11.9621360254297
 42
-0.198912367379366
 10
46.2058120594223
 20
-11.8742680597856
 42
-0.198912367379627
 10
46.4179440937782
 20
-11.9621360254297
 10
46.6179440937782
 20
-12.1621360254297
 42
0.198912367379591
 10
46.8300761281342
 20
-12.2500039910737
 10
46.9058120594223
 20
-12.2500039910737
 42
-0.414213562372868
 10
47.2058120594223
 20
-12.5500039910737
 10
47.2058120594223
 20
-27.9500039910738
 42
0.41421356237292
 10
47.5058120594222
 20
-28.2500039910738
 10
49.4058120594223
 20
-28.2500039910738
 42
-0.414213562373021
 10
49.7058120594223
 20
-28.5500039910738
 10
49.7058120594223
 20
-47.4000039910738
 42
-1.0
 10
47.2058120594223
 20
-47.4000039910738
 10
47.2058120594223
 20
-31.0500039910738
 42
0.414213562373001
 10
46.9058120594223
 20
-30.7500039910738
  0
LINE
  5
102
100
AcDbEntity
  8
1
  6
DASHED
100
AcDbLine
 10
58.6058120594221
 20
6.25014594959414
 11
58.6058120594221
 21
22.2501459495941
  0
LINE
  5
103
100
AcDbEntity
  8
1
  6
CONTINUOUS
100
AcDbLine
 10
55.4558120594223
 20
21.8126459495941
 11
58.9558120594223
 21
21.8126459495941
  0
LINE
  5
104
100
AcDbEntity
  8
1
  6
DASHED
100
AcDbLine
 10
55.8058120594222
 20
6.25014594959414
 11
55.8058120594222
 21
22.2501459495941
  0
LINE
  5
105
100
AcDbEntity
  8
1
  6
CONTINUOUS
100
AcDbLine
 10
60.7058120594223
 20
5.75014594959414
 11
53.7058120594223
 21
5.75014594959414
  0
LWPOLYLINE
  5
106
100
AcDbEntity
  8
1
  6
CONTINUOUS
100
AcDbPolyline
 90
        5
 70
     1
 43
0.0
 10
62.2058120594223
 20
11.7501459495942
 10
52.2058120594223
 20
11.7501459495942
 10
52.2058120594223
 20
12.150145949594
 10
62.2058120594223
 20
12.150145949594
 10
62.2058120594223
 20
11.7501459495942
  0
LWPOLYLINE
  5
107
100
AcDbEntity
  8
1
  6
CONTINUOUS
100
AcDbPolyline
 90
        4
 70
     0
 43
0.0
 10
60.7058120594223
 20
6.25014594959414
 10
60.7058120594223
 20
5.75014594959414
 42
-0.432142857142857
 10
53.7058120594223
 20
5.75014594959414
 10
53.7058120594223
 20
6.25014594959414
  0
LWPOLYLINE
  5
108
100
AcDbEntity
  8
1
  6
CONTINUOUS
100
AcDbPolyline
 90
        6
 70
     0
 43
0.0
 10
55.4558120594223
 20
6.25014594959414
 10
55.4558120594223
 20
21.8126459495941
 10
55.8058120594222
 20
22.2501459495941
 10
58.6058120594221
 20
22.2501459495941
 10
58.9558120594223
 20
21.8126459495941
 10
58.9558120594223
 20
6.25014594959414
  0
MTEXT
  5
109
100
AcDbEntity
  8
4
  6
CONTINUOUS
100
AcDbMText
 10
-97.0801619791918
 20
16.9668538414384
 40
8.1
 41
0.0
 11
1.0
 21
0.0
 71
     3
 72
     5
  7
BIGFONT
  1
{\T0.95;\W1.05263;別途工事}
  0
MTEXT
  5
10A
100
AcDbEntity
  8
4
  6
CONTINUOUS
100
AcDbMText
 10
-10.8807012820175
 20
-40.4839075721359
 40
8.1
 41
0.0
 11
1.0
 21
0.0
 71
     7
 72
     5
  7
BIGFONT
  1
{\T0.95;\W1.05263;固定金具}
  0
LINE
  5
10B
100
AcDbEntity
  8
4
  6
CONTINUOUS
100
AcDbLine
 10
-28.7011165618896
 20
-13.7160968780518
 11
-12.3806858062744
 21
-41.9839096069336
  0
LINE
  5
10C
100
AcDbEntity
  8
4
  6
CONTINUOUS
100
AcDbLine
 10
-12.3806858062744
 20
-41.9839096069336
 11
27.575553894043
 21
-41.9839096069336
  0
INSERT
  5
10D
100
AcDbEntity
  8
4
  6
CONTINUOUS
100
AcDbBlockReference
  2
MARK1_1
 10
-28.7011286997726
 20
-13.7160967506026
 41
6.0
 42
6.0
 50
300.0
  0
LINE
  5
10E
100
AcDbEntity
  8
4
  6
CONTINUOUS
100
AcDbLine
 10
-14.1294660568237
 20
-10.2316913604736
 11
-12.3806858062744
 21
-41.9839096069336
  0
INSERT
  5
10F
100
AcDbEntity
  8
4
  6
CONTINUOUS
100
AcDbBlockReference
  2
MARK1_1
 10
-14.129458167546
 20
-10.2316912330245
 41
6.0
 42
6.0
 50
273.0
  0
LWPOLYLINE
  5
110
100
AcDbEntity
  8
1
  6
CONTINUOUS
100
AcDbPolyline
 90
       25
 70
     0
 43
0.0
 10
50.0058120594221
 20
-19.7500039910738
 10
66.9058120594222
 20
-19.7500039910738
 42
-0.414213562372846
 10
67.2058120594222
 20
-20.0500039910738
 10
67.2058120594223
 20
-39.4500039910738
 42
-0.414213562372436
 10
66.9058120594222
 20
-39.7500039910738
 10
64.7058120594222
 20
-39.7500039910738
 10
64.7058120594222
 20
-41.9610039910738
 10
65.4058120594222
 20
-42.3650039910738
 10
64.7505190594222
 20
-43.5000039910738
 42
-0.267948755971514
 10
64.3175060594223
 20
-43.7500039910738
 10
64.2058120594222
 20
-43.7500039910738
 42
-0.414213562372968
 10
63.7058120594222
 20
-43.2500039910738
 10
63.7058120594222
 20
-39.7500039910738
 42
-0.414213562373003
 10
64.7058120594222
 20
-38.7500039910738
 10
66.2058120594222
 20
-38.7500039910738
 10
66.2058120594222
 20
-20.7500039910738
 10
50.7058120594222
 20
-20.7500039910738
 10
50.7058120594222
 20
-26.0500039910737
 10
52.2058120594222
 20
-26.0500039910737
 42
-0.414213562372995
 10
53.2058120594222
 20
-27.0500039910737
 10
53.2058120594222
 20
-30.5500039910737
 42
-0.414213562373409
 10
52.7058120594222
 20
-31.0500039910737
 10
52.5941170594221
 20
-31.0500039910737
 42
-0.267949192431727
 10
52.1611043575301
 20
-30.8000039910737
 10
51.5058120594223
 20
-29.6650039910737
  0
LWPOLYLINE
  5
111
100
AcDbEntity
  8
1
  6
CONTINUOUS
100
AcDbPolyline
 90
        2
 70
     0
 43
0.0
 10
51.5058120594223
 20
-29.6650039910737
 10
52.2058120594222
 20
-29.2610039910737
  0
LWPOLYLINE
  5
112
100
AcDbEntity
  8
1
  6
CONTINUOUS
100
AcDbPolyline
 90
        6
 70
     0
 43
0.0
 10
52.2058120594222
 20
-29.2610039910737
 10
52.2058120594222
 20
-27.0500039910737
 10
50.0058120594221
 20
-27.0500039910737
 42
-0.414213562372892
 10
49.7058120594222
 20
-26.7500039910737
 10
49.7058120594222
 20
-20.0500039910738
 42
-0.414213562373129
 10
50.0058120594221
 20
-19.7500039910738
  0
DIMENSION
  5
120
100
AcDbEntity
  8
3
  6
CONTINUOUS
100
AcDbDimension
  2
*D7
 10
97.0184705857042
 20
-52.7500039910738
 11
97.0184722303152
 21
-59.2750042594527
 70
    32
  3
ISO-25_0-333333
100
AcDbAlignedDimension
 13
66.9058120594222
 23
-49.7500039910738
 14
-65.5805232856088
 24
-52.7500039910738
 50
270.0
100
AcDbRotatedDimension
1001
ACAD
1000
DSTYLE
1002
{
1070
    75
1070
     1
1070
   280
1070
     2
1002
}
  0
DIMENSION
  5
130
100
AcDbEntity
  8
3
  6
CONTINUOUS
100
AcDbDimension
  2
*D8
 10
97.0184705857042
 20
-19.7500039910738
 11
97.0184705857042
 21
-34.7500039910738
 70
    32
  3
ISO-25_0-333333
100
AcDbAlignedDimension
 13
66.9058120594222
 23
-49.7500039910738
 14
66.9058120594222
 24
-19.7500039910738
 50
90.0
100
AcDbRotatedDimension
  0
DIMENSION
  5
140
100
AcDbEntity
  8
3
  6
CONTINUOUS
100
AcDbDimension
  2
*D9
 10
-67.7941879405777
 20
-92.5523378816528
 11
-0.294188120358251
 21
-92.5523371417957
 70
    32
  3
ISO-25_0-333333
100
AcDbAlignedDimension
 13
67.2058120594223
 23
-49.4500039910737
 14
-67.7941879405777
 24
-52.4500039910737
 50
180.0
100
AcDbRotatedDimension
  0
LINE
  5
141
100
AcDbEntity
  8
1
  6
CONTINUOUS
100
AcDbLine
 10
64.7058120594222
 20
-19.7500039910738
 11
64.7058120594222
 21
88.5406210270532
  0
MTEXT
  5
142
100
AcDbEntity
  8
4
  6
CONTINUOUS
100
AcDbMText
 10
88.1729038204523
 20
10.9679891794409
 40
8.1
 41
0.0
 11
1.0
 21
0.0
 71
     7
 72
     5
  7
BIGFONT
  1
{\T0.95;\W1.05263;化粧ボーダー}
  0
LINE
  5
143
100
AcDbEntity
  8
4
  6
CONTINUOUS
100
AcDbLine
 10
66.6816952209197
 20
-25.1577998196573
 11
86.6729038204523
 21
9.46798917944094
  0
LINE
  5
144
100
AcDbEntity
  8
4
  6
CONTINUOUS
100
AcDbLine
 10
86.6729038204523
 20
9.46798917944094
 11
145.866653820452
 21
9.46798917944093
  0
INSERT
  5
145
100
AcDbEntity
  8
4
  6
CONTINUOUS
100
AcDbBlockReference
  2
MARK1_1
 10
66.6816952209197
 20
-25.1577998196573
 41
6.0
 42
6.0
 50
60.0
  0
MTEXT
  5
146
100
AcDbEntity
  8
4
  6
CONTINUOUS
100
AcDbMText
 10
-62.1855144036365
 20
-150.935209915808
 40
13.5
 41
0.0
 11
1.0
 21
0.0
 71
     7
 72
     5
  7
STANDARD
  1
{\T1.03125;\W0.666667;WS-135N+WL-20N}
  0
LWPOLYLINE
  5
147
100
AcDbEntity
  8
1
  6
CONTINUOUS
100
AcDbPolyline
 90
        5
 70
     1
 43
0.0
 10
-69.3167700393443
 20
-132.719193234113
 10
72.3519912320714
 20
-132.719193234113
 10
72.3519912320714
 20
-155.651226597503
 10
-69.3167700393443
 20
-155.651226597503
 10
-69.3167700393443
 20
-132.719193234113
  0
ENDSEC
  0
SECTION
  2
OBJECTS
  0
DICTIONARY
  5
C
100
AcDbDictionary
  3
ACAD_GROUP
350
D
  3
ACAD_MLINESTYLE
350
E
  3
ACDBVARIABLEDICTIONARY
350
148
  0
DICTIONARY
  5
D
102
{ACAD_REACTORS
330
C
102
}
100
AcDbDictionary
  0
DICTIONARY
  5
E
102
{ACAD_REACTORS
330
C
102
}
100
AcDbDictionary
  3
STANDARD
350
13
  0
DICTIONARY
  5
148
102
{ACAD_REACTORS
330
C
102
}
330
C
100
AcDbDictionary
  3
SORTENTS
350
149
  0
MLINESTYLE
  5
13
102
{ACAD_REACTORS
330
E
102
}
100
AcDbMlineStyle
  2
STANDARD
 70
     0
  3

 62
   256
 51
90.0
 52
90.0
 71
     2
 49
0.5
 62
   256
  6
BYLAYER
 49
-0.5
 62
   256
  6
BYLAYER
  0
DICTIONARYVAR
  5
149
102
{ACAD_REACTORS
330
148
102
}
100
DictionaryVariables
280
     0
  1
96
  0
ENDSEC
  0
EOF
