  0
SECTION
  2
HEADER
  9
$ACADVER
  1
AC1014
  9
$ACADMAINTVER
 70
     0
  9
$DWGCODEPAGE
  3
ANSI_932
  9
$INSBASE
 10
0.0
 20
0.0
 30
0.0
  9
$EXTMIN
 10
-201.092363051668
 20
-94.1744311842648
  9
$EXTMAX
 10
186.293729531576
 20
66.39912013247
  9
$LIMMIN
 10
-201.092363051668
 20
-94.1744311842648
  9
$LIMMAX
 10
186.293729531576
 20
66.39912013247
  9
$ORTHOMODE
 70
     0
  9
$REGENMODE
 70
     1
  9
$FILLMODE
 70
     1
  9
$QTEXTMODE
 70
     0
  9
$MIRRTEXT
 70
     1
  9
$DRAGMODE
 70
     2
  9
$LTSCALE
 40
1.0
  9
$OSMODE
 70
     0
  9
$ATTMODE
 70
     1
  9
$TEXTSIZE
 40
3.0
  9
$TRACEWID
 40
0.5
  9
$TEXTSTYLE
  7
STANDARD
  9
$CLAYER
  8
0
  9
$CELTYPE
  6
BYLAYER
  9
$CECOLOR
 62
   256
  9
$CELTSCALE
 40
1.0
  9
$DELOBJ
 70
     1
  9
$DISPSILH
 70
     0
  9
$DIMSCALE
 40
1.0
  9
$DIMASZ
 40
3.0
  9
$DIMEXO
 40
1.0
  9
$DIMDLI
 40
5.0
  9
$DIMRND
 40
0.0
  9
$DIMDLE
 40
1.0
  9
$DIMEXE
 40
2.0
  9
$DIMTP
 40
0.0
  9
$DIMTM
 40
0.0
  9
$DIMTXT
 40
2.70000004768372
  9
$DIMCEN
 40
2.0
  9
$DIMTSZ
 40
0.0
  9
$DIMTOL
 70
     0
  9
$DIMLIM
 70
     0
  9
$DIMTIH
 70
     0
  9
$DIMTOH
 70
     0
  9
$DIMSE1
 70
     0
  9
$DIMSE2
 70
     0
  9
$DIMTAD
 70
     1
  9
$DIMZIN
 70
     8
  9
$DIMBLK
  1

  9
$DIMASO
 70
     1
  9
$DIMSHO
 70
     1
  9
$DIMPOST
  1

  9
$DIMAPOST
  1

  9
$DIMALT
 70
     0
  9
$DIMALTD
 70
     4
  9
$DIMALTF
 40
25.4
  9
$DIMLFAC
 40
1.0
  9
$DIMTOFL
 70
     1
  9
$DIMTVP
 40
1.0
  9
$DIMTIX
 70
     0
  9
$DIMSOXD
 70
     0
  9
$DIMSAH
 70
     0
  9
$DIMBLK1
  1

  9
$DIMBLK2
  1

  9
$DIMSTYLE
  2
ISO-25
  9
$DIMCLRD
 70
     0
  9
$DIMCLRE
 70
     0
  9
$DIMCLRT
 70
     0
  9
$DIMTFAC
 40
1.0
  9
$DIMGAP
 40
0.5
  9
$DIMJUST
 70
     0
  9
$DIMSD1
 70
     0
  9
$DIMSD2
 70
     0
  9
$DIMTOLJ
 70
     1
  9
$DIMTZIN
 70
     1
  9
$DIMALTZ
 70
     0
  9
$DIMALTTZ
 70
     0
  9
$DIMFIT
 70
     3
  9
$DIMUPT
 70
     0
  9
$DIMUNIT
 70
     2
  9
$DIMDEC
 70
     1
  9
$DIMTDEC
 70
     3
  9
$DIMALTU
 70
     8
  9
$DIMALTTD
 70
     4
  9
$DIMTXSTY
  7
STANDARD
  9
$DIMAUNIT
 70
     0
  9
$LUNITS
 70
     2
  9
$LUPREC
 70
     4
  9
$AXISMODE
 70
     0
  9
$AXISUNIT
 10
0.0
 20
0.0
  9
$SKETCHINC
 40
1.0
  9
$FILLETRAD
 40
0.0
  9
$AUNITS
 70
     0
  9
$AUPREC
 70
     0
  9
$MENU
  1
.
  9
$ELEVATION
 40
0.0
  9
$PELEVATION
 40
0.0
  9
$THICKNESS
 40
0.0
  9
$LIMCHECK
 70
     0
  9
$BLIPMODE
 70
     1
  9
$CHAMFERA
 40
0.0
  9
$CHAMFERB
 40
0.0
  9
$CHAMFERC
 40
0.0
  9
$CHAMFERD
 40
0.0
  9
$SKPOLY
 70
     0
  9
$TDCREATE
 40
2454821.6637037
  9
$TDUPDATE
 40
2454821.6637037
  9
$TDINDWG
 40
0.0
  9
$TDUSRTIMER
 40
0.0
  9
$USRTIMER
 70
     1
  9
$ANGBASE
 50
0.0
  9
$ANGDIR
 70
     0
  9
$PDMODE
 70
     0
  9
$PDSIZE
 40
0.0
  9
$PLINEWID
 40
0.0
  9
$COORDS
 70
     0
  9
$SPLFRAME
 70
     0
  9
$SPLINETYPE
 70
     6
  9
$SPLINESEGS
 70
     8
  9
$ATTDIA
 70
     0
  9
$ATTREQ
 70
     1
  9
$HANDLING
 70
     1
  9
$HANDSEED
  5
A1
  9
$SURFTAB1
 70
     6
  9
$SURFTAB2
 70
     6
  9
$SURFTYPE
 70
     6
  9
$SURFU
 70
     6
  9
$SURFV
 70
     6
  9
$UCSNAME
  2

  9
$UCSORG
 10
0.0
 20
0.0
 30
0.0
  9
$UCSXDIR
 10
1.0
 20
0.0
 30
0.0
  9
$UCSYDIR
 10
0.0
 20
1.0
 30
0.0
  9
$PUCSNAME
  2

  9
$PUCSORG
 10
0.0
 20
1.0
 30
0.0
  9
$PUCSXDIR
 10
1.0
 20
0.0
 30
0.0
  9
$PUCSYDIR
 10
0.0
 20
1.0
 30
0.0
  9
$USERI1
 70
     0
  9
$USERI2
 70
     0
  9
$USERI3
 70
     0
  9
$USERI4
 70
     0
  9
$USERI5
 70
     0
  9
$USERR1
 40
0.0
  9
$USERR2
 40
0.0
  9
$USERR3
 40
0.0
  9
$USERR4
 40
0.0
  9
$USERR5
 40
0.0
  9
$WORLDVIEW
 70
     1
  9
$SHADEDGE
 70
     3
  9
$SHADEDIF
 70
    70
  9
$TILEMODE
 70
     1
  9
$MAXACTVP
 70
    16
  9
$PINSBASE
 10
0.0
 20
1.0
 30
0.0
  9
$PLIMCHECK
 70
     0
  9
$PEXTMIN
 10
1.00000000000000E+020
 20
1.00000000000000E+020
 30
1.00000000000000E+020
  9
$PEXTMAX
 10
-1.00000000000000E+020
 20
-1.00000000000000E+020
 30
-1.00000000000000E+020
  9
$PLIMMIN
 10
-201.092363051668
 20
-94.1744311842648
  9
$PLIMMAX
 10
186.293729531576
 20
66.39912013247
  9
$UNITMODE
 70
     0
  9
$VISRETAIN
 70
     0
  9
$PLINEGEN
 70
     0
  9
$PSLTSCALE
 70
     0
  9
$TREEDEPTH
 70
  3020
  9
$PICKSTYLE
 70
     1
  9
$CMLSTYLE
  2
STANDARD
  9
$CMLJUST
 70
     0
  9
$CMLSCALE
 40
1.0
  9
$PROXYGRAPHICS
 70
     1
  9
$MEASUREMENT
 70
     1
  0
ENDSEC
  0
SECTION
  2
CLASSES
  0
CLASS
  1
LWPOLYLINE
  2
AcDbPolyline
  3
"AutoCAD"
 90
        0
280
     0
281
     1
  0
CLASS
  1
DICTIONARYVAR
  2
AcDbDictionaryVar
  3
"AutoCAD"
 90
        0
280
     0
281
     1
  0
CLASS
  1
HATCH
  2
AcDbHatch
  3
"AutoCAD"
 90
        0
280
     0
281
     1
  0
ENDSEC
  0
SECTION
  2
TABLES
  0
TABLE
  2
VPORT
  5
8
100
AcDbSymbolTable
 70
     1
  0
VPORT
  5
97
100
AcDbSymbolTableRecord
100
AcDbViewportTableRecord
  2
*ACTIVE
 70
     0
 10
0.0
 20
0.0
 11
1.0
 21
1.0
 12
-7.39931676004591
 22
-13.8876555258974
 13
0.0
 23
0.0
 14
0.0
 24
0.0
 15
0.0
 25
0.0
 16
0.0
 26
0.0
 36
1.0
 17
0.0
 27
0.0
 37
0.0
 40
387.386092583244
 41
1.5
 42
50.0
 43
0.0
 44
0.0
 50
0.0
 51
0.0
 71
     0
 72
   100
 73
     1
 74
     1
 75
     0
 76
     0
 77
     0
 78
     0
  0
ENDTAB
  0
TABLE
  2
LTYPE
  5
5
100
AcDbSymbolTable
 70
    20
  0
LTYPE
  5
98
100
AcDbSymbolTableRecord
100
AcDbLinetypeTableRecord
  2
BYBLOCK
 70
     0
  3

 72
    65
 73
     0
 40
0.0
  0
LTYPE
  5
99
100
AcDbSymbolTableRecord
100
AcDbLinetypeTableRecord
  2
BYLAYER
 70
     0
  3

 72
    65
 73
     0
 40
0.0
  0
LTYPE
  5
9A
100
AcDbSymbolTableRecord
100
AcDbLinetypeTableRecord
  2
CONTINUOUS
 70
    64
  3
solid line
 72
    65
 73
     0
 40
0.0
  0
ENDTAB
  0
TABLE
  2
LAYER
  5
2
100
AcDbSymbolTable
 70
    20
  0
LAYER
  5
9B
100
AcDbSymbolTableRecord
100
AcDbLayerTableRecord
  2
0
 70
    64
 62
     7
  6
CONTINUOUS
  0
LAYER
  5
25
100
AcDbSymbolTableRecord
100
AcDbLayerTableRecord
  2
1
 70
    64
 62
     7
  6
CONTINUOUS
  0
LAYER
  5
29
100
AcDbSymbolTableRecord
100
AcDbLayerTableRecord
  2
100
 70
    64
 62
     7
  6
CONTINUOUS
  0
LAYER
  5
3E
100
AcDbSymbolTableRecord
100
AcDbLayerTableRecord
  2
3
 70
    64
 62
     7
  6
CONTINUOUS
  0
LAYER
  5
91
100
AcDbSymbolTableRecord
100
AcDbLayerTableRecord
  2
4
 70
    64
 62
     7
  6
CONTINUOUS
  0
LAYER
  5
9C
100
AcDbSymbolTableRecord
100
AcDbLayerTableRecord
  2
DEFPOINTS
 70
     0
 62
    -7
  6
CONTINUOUS
  0
ENDTAB
  0
TABLE
  2
STYLE
  5
3
100
AcDbSymbolTable
 70
     4
  0
STYLE
  5
9D
100
AcDbSymbolTableRecord
100
AcDbTextStyleTableRecord
  2
STANDARD
 70
    64
 40
0.0
 41
1.0
 50
0.0
 71
     0
 42
8.99999973177911
  3
monotxt
  4

  0
ENDTAB
  0
TABLE
  2
VIEW
  5
6
100
AcDbSymbolTable
 70
     0
  0
ENDTAB
  0
TABLE
  2
UCS
  5
7
100
AcDbSymbolTable
 70
     0
  0
ENDTAB
  0
TABLE
  2
APPID
  5
9
100
AcDbSymbolTable
 70
     1
  0
APPID
  5
9E
100
AcDbSymbolTableRecord
100
AcDbRegAppTableRecord
  2
ACAD
 70
     0
  0
ENDTAB
  0
TABLE
  2
DIMSTYLE
  5
A
100
AcDbSymbolTable
 70
     8
  0
DIMSTYLE
105
9F
100
AcDbSymbolTableRecord
100
AcDbDimStyleTableRecord
  2
ISO-25
 70
     0
  3

  4

  5

  6

  7

 40
1.0
 41
3.0
 42
1.0
 43
5.0
 44
2.0
 45
0.0
 46
1.0
 47
0.0
 48
0.0
140
2.70000004768372
141
2.0
142
0.0
143
25.4
144
1.0
145
1.0
146
1.0
147
0.5
 71
     0
 72
     0
 73
     0
 74
     0
 75
     0
 76
     0
 77
     1
 78
     8
170
     0
171
     0
172
     1
173
     0
174
     0
175
     0
176
     0
177
     0
178
     0
270
     2
271
     1
272
     3
273
     8
274
     4
340
9D
275
     0
280
     0
281
     0
282
     0
283
     1
284
     1
285
     0
286
     0
287
     3
288
     0
  0
DIMSTYLE
105
A0
100
AcDbSymbolTableRecord
100
AcDbDimStyleTableRecord
  2
ISO-25_0-333333
 70
     0
  3

  4

  5

  6

  7

 40
1.0
 41
8.99999973177911
 42
2.99999991059304
 43
14.9999995529652
 44
5.99999982118607
 45
0.0
 46
2.99999991059304
 47
0.0
 48
0.0
140
8.09999990165234
141
5.99999982118607
142
0.0
143
25.4
144
1.0
145
1.0
146
1.0
147
1.49999995529652
 71
     0
 72
     0
 73
     0
 74
     0
 75
     0
 76
     0
 77
     1
 78
     8
170
     0
171
     0
172
     1
173
     0
174
     0
175
     0
176
     0
177
     0
178
     0
270
     2
271
     1
272
     3
273
     8
274
     4
340
9D
275
     0
280
     0
281
     0
282
     0
283
     1
284
     1
285
     0
286
     0
287
     3
288
     0
  0
ENDTAB
  0
TABLE
  2
BLOCK_RECORD
  5
1
100
AcDbSymbolTable
 70
     2
  0
BLOCK_RECORD
  5
20
100
AcDbSymbolTableRecord
100
AcDbBlockTableRecord
  2
*MODEL_SPACE
  0
BLOCK_RECORD
  5
22
100
AcDbSymbolTableRecord
100
AcDbBlockTableRecord
  2
*PAPER_SPACE
  0
BLOCK_RECORD
  5
2F
100
AcDbSymbolTableRecord
100
AcDbBlockTableRecord
  2
*D1
  0
BLOCK_RECORD
  5
40
100
AcDbSymbolTableRecord
100
AcDbBlockTableRecord
  2
*D2
  0
BLOCK_RECORD
  5
51
100
AcDbSymbolTableRecord
100
AcDbBlockTableRecord
  2
*D3
  0
BLOCK_RECORD
  5
61
100
AcDbSymbolTableRecord
100
AcDbBlockTableRecord
  2
*D4
  0
BLOCK_RECORD
  5
71
100
AcDbSymbolTableRecord
100
AcDbBlockTableRecord
  2
*D5
  0
BLOCK_RECORD
  5
80
100
AcDbSymbolTableRecord
100
AcDbBlockTableRecord
  2
*D6
  0
ENDTAB
  0
ENDSEC
  0
SECTION
  2
BLOCKS
  0
BLOCK
  5
21
100
AcDbEntity
  8
0
100
AcDbBlockBegin
  2
*MODEL_SPACE
 70
     0
 10
0.0
 20
0.0
 30
0.0
  3
*MODEL_SPACE
  1

  0
ENDBLK
  5
95
100
AcDbEntity
  8
0
100
AcDbBlockEnd
  0
BLOCK
  5
23
100
AcDbEntity
 67
     1
  8
0
100
AcDbBlockBegin
  2
*PAPER_SPACE
 70
     0
 10
0.0
 20
0.0
 30
0.0
  3
*PAPER_SPACE
  1

  0
ENDBLK
  5
96
100
AcDbEntity
 67
     1
  8
0
100
AcDbBlockEnd
  0
BLOCK
  5
30
100
AcDbEntity
  8
0
100
AcDbBlockBegin
  2
*D1
 70
    65
 10
0.0
 20
0.0
  0
LINE
  5
31
100
AcDbEntity
  8
0
  6
CONTINUOUS
100
AcDbLine
 10
180.293729549721
 20
27.5
 11
180.293729549721
 21
20.0
  0
CIRCLE
  5
32
100
AcDbEntity
  8
0
  6
CONTINUOUS
100
AcDbCircle
 10
180.293729549721
 20
27.5
 40
1.12499996647239
  0
CIRCLE
  5
33
100
AcDbEntity
  8
0
  6
CONTINUOUS
100
AcDbCircle
 10
180.293729549721
 20
27.5
 40
0.562499983236194
  0
LINE
  5
34
100
AcDbEntity
  8
0
  6
CONTINUOUS
100
AcDbLine
 10
180.293729549721
 20
12.5
 11
180.293729549721
 21
20.0
  0
CIRCLE
  5
35
100
AcDbEntity
  8
0
  6
CONTINUOUS
100
AcDbCircle
 10
180.293729549721
 20
12.5
 40
1.12499996647239
  0
CIRCLE
  5
36
100
AcDbEntity
  8
0
  6
CONTINUOUS
100
AcDbCircle
 10
180.293729549721
 20
12.5
 40
0.562499983236194
  0
LINE
  5
37
100
AcDbEntity
  8
0
  6
CONTINUOUS
100
AcDbLine
 10
-145.5
 20
27.5
 11
186.293729531576
 21
27.5
  0
LINE
  5
38
100
AcDbEntity
  8
0
  6
CONTINUOUS
100
AcDbLine
 10
154.5
 20
12.5
 11
186.293729531576
 21
12.5
  0
MTEXT
  5
39
100
AcDbEntity
  8
0
  6
CONTINUOUS
100
AcDbMText
 10
178.793729531576
 20
15.1906261444092
 40
8.0999997586012
 41
0.0
 11
6.12323399573677E-017
 21
1.0
 71
     7
 72
     5
  7
STANDARD
  1
{\T1.03125;\W0.666667;15}
 73
     1
 44
1.0
  0
POINT
  5
3A
100
AcDbEntity
  8
DEFPOINTS
  6
BYBLOCK
 62
     0
100
AcDbPoint
 10
-150.000000461936
 20
27.5
  0
POINT
  5
3B
100
AcDbEntity
  8
DEFPOINTS
  6
BYBLOCK
 62
     0
100
AcDbPoint
 10
149.999999538064
 20
12.5
  0
POINT
  5
3C
100
AcDbEntity
  8
DEFPOINTS
  6
BYBLOCK
 62
     0
100
AcDbPoint
 10
180.293729549721
 20
12.5
  0
ENDBLK
  5
3D
100
AcDbEntity
  8
3
100
AcDbBlockEnd
  0
BLOCK
  5
41
100
AcDbEntity
  8
0
100
AcDbBlockBegin
  2
*D2
 70
    65
 10
0.0
 20
0.0
  0
LINE
  5
42
100
AcDbEntity
  8
0
  6
CONTINUOUS
100
AcDbLine
 10
-150.000000461936
 20
55.2991209629587
 11
-4.61935997009277E-007
 21
55.2991209629587
  0
CIRCLE
  5
43
100
AcDbEntity
  8
0
  6
CONTINUOUS
100
AcDbCircle
 10
-150.000000461936
 20
55.2991209629587
 40
1.12499996647239
  0
CIRCLE
  5
44
100
AcDbEntity
  8
0
  6
CONTINUOUS
100
AcDbCircle
 10
-150.000000461936
 20
55.2991209629587
 40
0.562499983236194
  0
LINE
  5
45
100
AcDbEntity
  8
0
  6
CONTINUOUS
100
AcDbLine
 10
149.999999538064
 20
55.2991209629587
 11
-4.61935997009277E-007
 21
55.2991209629587
  0
CIRCLE
  5
46
100
AcDbEntity
  8
0
  6
CONTINUOUS
100
AcDbCircle
 10
149.999999538064
 20
55.2991209629587
 40
1.12499996647239
  0
CIRCLE
  5
47
100
AcDbEntity
  8
0
  6
CONTINUOUS
100
AcDbCircle
 10
149.999999538064
 20
55.2991209629587
 40
0.562499983236194
  0
LINE
  5
48
100
AcDbEntity
  8
0
  6
CONTINUOUS
100
AcDbLine
 10
-150.000000461936
 20
27.7950038909912
 11
-150.000000461936
 21
61.2991216583489
  0
LINE
  5
49
100
AcDbEntity
  8
0
  6
CONTINUOUS
100
AcDbLine
 10
149.999999538064
 20
13.1950025558472
 11
149.999999538064
 21
61.2991216583489
  0
MTEXT
  5
4A
100
AcDbEntity
  8
0
  6
CONTINUOUS
100
AcDbMText
 10
-7.59374904632568
 20
56.7991216583489
 40
8.0999997586012
 41
0.0
 11
1.0
 21
0.0
 71
     7
 72
     5
  7
STANDARD
  1
{\T1.03125;\W0.666667;300}
 73
     1
 44
1.0
  0
POINT
  5
4B
100
AcDbEntity
  8
DEFPOINTS
  6
BYBLOCK
 62
     0
100
AcDbPoint
 10
-150.000000461936
 20
23.2950031210998
  0
POINT
  5
4C
100
AcDbEntity
  8
DEFPOINTS
  6
BYBLOCK
 62
     0
100
AcDbPoint
 10
149.999999538064
 20
8.69500312109984
  0
POINT
  5
4D
100
AcDbEntity
  8
DEFPOINTS
  6
BYBLOCK
 62
     0
100
AcDbPoint
 10
149.999999538064
 20
55.2991209629587
  0
ENDBLK
  5
4E
100
AcDbEntity
  8
3
100
AcDbBlockEnd
  0
BLOCK
  5
52
100
AcDbEntity
  8
0
100
AcDbBlockBegin
  2
*D3
 70
    65
 10
0.0
 20
0.0
  0
LINE
  5
53
100
AcDbEntity
  8
0
  6
CONTINUOUS
100
AcDbLine
 10
180.293729549721
 20
12.5
 11
180.293729549721
 21
-13.0
  0
CIRCLE
  5
54
100
AcDbEntity
  8
0
  6
CONTINUOUS
100
AcDbCircle
 10
180.293729549721
 20
12.5
 40
1.12499996647239
  0
CIRCLE
  5
55
100
AcDbEntity
  8
0
  6
CONTINUOUS
100
AcDbCircle
 10
180.293729549721
 20
12.5
 40
0.562499983236194
  0
LINE
  5
56
100
AcDbEntity
  8
0
  6
CONTINUOUS
100
AcDbLine
 10
180.293729549721
 20
-38.5
 11
180.293729549721
 21
-13.0
  0
CIRCLE
  5
57
100
AcDbEntity
  8
0
  6
CONTINUOUS
100
AcDbCircle
 10
180.293729549721
 20
-38.5
 40
1.12499996647239
  0
CIRCLE
  5
58
100
AcDbEntity
  8
0
  6
CONTINUOUS
100
AcDbCircle
 10
180.293729549721
 20
-38.5
 40
0.562499983236194
  0
LINE
  5
59
100
AcDbEntity
  8
0
  6
CONTINUOUS
100
AcDbLine
 10
158.99999986589
 20
12.5
 11
186.293729370907
 21
12.5
  0
LINE
  5
5A
100
AcDbEntity
  8
0
  6
CONTINUOUS
100
AcDbLine
 10
154.199999403954
 20
-38.5
 11
186.293729370907
 21
-38.5
  0
MTEXT
  5
5B
100
AcDbEntity
  8
0
  6
CONTINUOUS
100
AcDbMText
 10
178.793729594424
 20
-17.8093749416061
 40
8.09999990165234
 41
0.0
 11
6.12323399573677E-017
 21
1.0
 71
     7
 72
     5
  7
STANDARD
  1
{\T1.03125;\W0.666667;51}
 73
     1
 44
1.0
  0
POINT
  5
5C
100
AcDbEntity
  8
DEFPOINTS
  6
BYBLOCK
 62
     0
100
AcDbPoint
 10
154.5
 20
12.5
  0
POINT
  5
5D
100
AcDbEntity
  8
DEFPOINTS
  6
BYBLOCK
 62
     0
100
AcDbPoint
 10
149.699999538064
 20
-38.5
  0
POINT
  5
5E
100
AcDbEntity
  8
DEFPOINTS
  6
BYBLOCK
 62
     0
100
AcDbPoint
 10
180.293729549721
 20
-38.5
  0
ENDBLK
  5
5F
100
AcDbEntity
  8
3
100
AcDbBlockEnd
  0
BLOCK
  5
62
100
AcDbEntity
  8
0
100
AcDbBlockBegin
  2
*D4
 70
    65
 10
0.0
 20
0.0
  0
LINE
  5
63
100
AcDbEntity
  8
0
  6
CONTINUOUS
100
AcDbLine
 10
-171.56098985881
 20
27.5
 11
-171.56098985881
 21
13.75
  0
CIRCLE
  5
64
100
AcDbEntity
  8
0
  6
CONTINUOUS
100
AcDbCircle
 10
-171.56098985881
 20
27.5
 40
1.12499996647239
  0
CIRCLE
  5
65
100
AcDbEntity
  8
0
  6
CONTINUOUS
100
AcDbCircle
 10
-171.56098985881
 20
27.5
 40
0.562499983236194
  0
LINE
  5
66
100
AcDbEntity
  8
0
  6
CONTINUOUS
100
AcDbLine
 10
-171.56098985881
 20
0.0
 11
-171.56098985881
 21
13.75
  0
CIRCLE
  5
67
100
AcDbEntity
  8
0
  6
CONTINUOUS
100
AcDbCircle
 10
-171.56098985881
 20
0.0
 40
1.12499996647239
  0
CIRCLE
  5
68
100
AcDbEntity
  8
0
  6
CONTINUOUS
100
AcDbCircle
 10
-171.56098985881
 20
0.0
 40
0.562499983236194
  0
LINE
  5
69
100
AcDbEntity
  8
0
  6
CONTINUOUS
100
AcDbLine
 10
-154.500000327826
 20
27.5
 11
-177.560989679996
 21
27.5
  0
LINE
  5
6A
100
AcDbEntity
  8
0
  6
CONTINUOUS
100
AcDbLine
 10
-154.500000327826
 20
0.0
 11
-177.560989679996
 21
0.0
  0
MTEXT
  5
6B
100
AcDbEntity
  8
0
  6
CONTINUOUS
100
AcDbMText
 10
-173.060989814106
 20
8.94062505839392
 40
8.09999990165234
 41
0.0
 11
6.12323399573677E-017
 21
1.0
 71
     7
 72
     5
  7
STANDARD
  1
{\T1.03125;\W0.666667;28}
 73
     1
 44
1.0
  0
POINT
  5
6C
100
AcDbEntity
  8
DEFPOINTS
  6
BYBLOCK
 62
     0
100
AcDbPoint
 10
-150.000000461936
 20
27.5
  0
POINT
  5
6D
100
AcDbEntity
  8
DEFPOINTS
  6
BYBLOCK
 62
     0
100
AcDbPoint
 10
-150.000000461936
 20
0.0
  0
POINT
  5
6E
100
AcDbEntity
  8
DEFPOINTS
  6
BYBLOCK
 62
     0
100
AcDbPoint
 10
-171.56098985881
 20
0.0
  0
ENDBLK
  5
6F
100
AcDbEntity
  8
3
100
AcDbBlockEnd
  0
BLOCK
  5
72
100
AcDbEntity
  8
0
100
AcDbBlockBegin
  2
*D5
 70
    65
 10
0.0
 20
0.0
  0
LINE
  5
73
100
AcDbEntity
  8
0
  6
CONTINUOUS
100
AcDbLine
 10
-171.56098985881
 20
0.0
 11
-171.56098985881
 21
-19.25
  0
CIRCLE
  5
74
100
AcDbEntity
  8
0
  6
CONTINUOUS
100
AcDbCircle
 10
-171.56098985881
 20
0.0
 40
1.12499996647239
  0
CIRCLE
  5
75
100
AcDbEntity
  8
0
  6
CONTINUOUS
100
AcDbCircle
 10
-171.56098985881
 20
0.0
 40
0.562499983236194
  0
LINE
  5
76
100
AcDbEntity
  8
0
  6
CONTINUOUS
100
AcDbLine
 10
-171.56098985881
 20
-38.5
 11
-171.56098985881
 21
-19.25
  0
CIRCLE
  5
77
100
AcDbEntity
  8
0
  6
CONTINUOUS
100
AcDbCircle
 10
-171.56098985881
 20
-38.5
 40
1.12499996647239
  0
CIRCLE
  5
78
100
AcDbEntity
  8
0
  6
CONTINUOUS
100
AcDbCircle
 10
-171.56098985881
 20
-38.5
 40
0.562499983236194
  0
LINE
  5
79
100
AcDbEntity
  8
0
  6
CONTINUOUS
100
AcDbLine
 10
-154.500000327826
 20
-38.5
 11
-177.560989679996
 21
-38.5
  0
MTEXT
  5
7A
100
AcDbEntity
  8
0
  6
CONTINUOUS
100
AcDbMText
 10
-173.060989814106
 20
-24.0593749416061
 40
8.09999990165234
 41
0.0
 11
6.12323399573677E-017
 21
1.0
 71
     7
 72
     5
  7
STANDARD
  1
{\T1.03125;\W0.666667;38}
 73
     1
 44
1.0
  0
POINT
  5
7B
100
AcDbEntity
  8
DEFPOINTS
  6
BYBLOCK
 62
     0
100
AcDbPoint
 10
-150.000000461936
 20
0.0
  0
POINT
  5
7C
100
AcDbEntity
  8
DEFPOINTS
  6
BYBLOCK
 62
     0
100
AcDbPoint
 10
-150.000000461936
 20
-38.5
  0
POINT
  5
7D
100
AcDbEntity
  8
DEFPOINTS
  6
BYBLOCK
 62
     0
100
AcDbPoint
 10
-171.56098985881
 20
-38.5
  0
ENDBLK
  5
7E
100
AcDbEntity
  8
3
100
AcDbBlockEnd
  0
BLOCK
  5
81
100
AcDbEntity
  8
0
100
AcDbBlockBegin
  2
*D6
 70
    65
 10
0.0
 20
0.0
  0
LINE
  5
82
100
AcDbEntity
  8
0
  6
CONTINUOUS
100
AcDbLine
 10
-189.992363239423
 20
-38.5
 11
-189.992363239423
 21
-5.5
  0
CIRCLE
  5
83
100
AcDbEntity
  8
0
  6
CONTINUOUS
100
AcDbCircle
 10
-189.992363239423
 20
-38.5
 40
1.12499996647239
  0
CIRCLE
  5
84
100
AcDbEntity
  8
0
  6
CONTINUOUS
100
AcDbCircle
 10
-189.992363239423
 20
-38.5
 40
0.562499983236194
  0
LINE
  5
85
100
AcDbEntity
  8
0
  6
CONTINUOUS
100
AcDbLine
 10
-189.992363239423
 20
27.5
 11
-189.992363239423
 21
-5.5
  0
CIRCLE
  5
86
100
AcDbEntity
  8
0
  6
CONTINUOUS
100
AcDbCircle
 10
-189.992363239423
 20
27.5
 40
1.12499996647239
  0
CIRCLE
  5
87
100
AcDbEntity
  8
0
  6
CONTINUOUS
100
AcDbCircle
 10
-189.992363239423
 20
27.5
 40
0.562499983236194
  0
LINE
  5
88
100
AcDbEntity
  8
0
  6
CONTINUOUS
100
AcDbLine
 10
-154.200000327826
 20
-38.5
 11
-195.992363060609
 21
-38.5
  0
LINE
  5
89
100
AcDbEntity
  8
0
  6
CONTINUOUS
100
AcDbLine
 10
-154.500000327826
 20
27.5
 11
-195.992363060609
 21
27.5
  0
MTEXT
  5
8A
100
AcDbEntity
  8
0
  6
CONTINUOUS
100
AcDbMText
 10
-191.492363194719
 20
-10.3093749416061
 40
8.09999990165234
 41
0.0
 11
6.12323399573677E-017
 21
1.0
 71
     7
 72
     5
  7
STANDARD
  1
{\T1.03125;\W0.666667;66}
 73
     1
 44
1.0
  0
POINT
  5
8B
100
AcDbEntity
  8
DEFPOINTS
  6
BYBLOCK
 62
     0
100
AcDbPoint
 10
-149.700000461936
 20
-38.5
  0
POINT
  5
8C
100
AcDbEntity
  8
DEFPOINTS
  6
BYBLOCK
 62
     0
100
AcDbPoint
 10
-150.000000461936
 20
27.5
  0
POINT
  5
8D
100
AcDbEntity
  8
DEFPOINTS
  6
BYBLOCK
 62
     0
100
AcDbPoint
 10
-189.992363239423
 20
27.5
  0
ENDBLK
  5
8E
100
AcDbEntity
  8
3
100
AcDbBlockEnd
  0
ENDSEC
  0
SECTION
  2
ENTITIES
  0
LWPOLYLINE
  5
24
100
AcDbEntity
  8
1
  6
CONTINUOUS
100
AcDbPolyline
 90
       45
 70
     1
 43
0.0
 10
-150.000000461936
 20
23.2950031210998
 10
-150.000000461936
 20
-38.2
 42
0.414213562373021
 10
-149.700000461936
 20
-38.5
 10
-148.300000461936
 20
-38.5
 42
0.414213562373029
 10
-148.000000461936
 20
-38.2
 10
-148.000000461936
 20
-37.8
 42
-0.414213562373021
 10
-147.700000461936
 20
-37.5
 10
-143.000000461936
 20
-37.5
 42
0.414213562373102
 10
-142.000000461936
 20
-36.5
 10
-142.000000461936
 20
-34.8
 42
0.414213562373021
 10
-142.300000461936
 20
-34.5
 10
-143.700000461936
 20
-34.5
 42
0.414213562373029
 10
-144.000000461936
 20
-34.8
 10
-144.000000461936
 20
-35.2
 42
-0.414213562373021
 10
-144.300000461936
 20
-35.5
 10
-147.000000461936
 20
-35.5
 42
-0.414213562373102
 10
-148.000000461936
 20
-34.5
 10
-148.000000461936
 20
21.8557359312881
 42
-0.198912367379766
 10
-147.912132496292
 20
22.0678679656441
 10
-144.839379293107
 20
25.1406211688291
 42
-0.211929146288667
 10
-144.612265973668
 20
25.2281148361365
 10
144.255622019627
 20
10.7847204364718
 42
-0.185960107634948
 10
144.4527727689
 20
10.6972267691644
 10
147.91213157242
 20
7.23786796564406
 42
-0.198912367379497
 10
147.999999538064
 20
7.02573593128809
 10
147.999999538064
 20
-34.5
 42
-0.414213562373106
 10
146.999999538064
 20
-35.5
 10
144.299999538064
 20
-35.5
 42
-0.414213562373029
 10
143.999999538064
 20
-35.2
 10
143.999999538064
 20
-34.8
 42
0.414213562373021
 10
143.699999538064
 20
-34.5
 10
142.299999538064
 20
-34.5
 42
0.414213562373029
 10
141.999999538064
 20
-34.8
 10
141.999999538064
 20
-36.5
 42
0.414213562373106
 10
142.999999538064
 20
-37.5
 10
147.699999538064
 20
-37.5
 42
-0.414213562373029
 10
147.999999538064
 20
-37.8
 10
147.999999538064
 20
-38.2
 42
0.414213562373021
 10
148.299999538064
 20
-38.5
 10
149.699999538064
 20
-38.5
 42
0.414213562373029
 10
149.999999538064
 20
-38.2
 10
149.999999538064
 20
8.69500312109984
 42
0.399655643445698
 10
146.19975000584
 20
12.6900124766112
 10
-145.80024999416
 20
27.2900124766112
 42
0.428922899261398
 10
-150.000000461936
 20
23.2950031210998
  0
LWPOLYLINE
  5
26
100
AcDbEntity
  8
1
  6
CONTINUOUS
100
AcDbPolyline
 90
       25
 70
     1
 43
0.0
 10
-133.003482080114
 20
24.3954057107174
 10
-134.466909295021
 20
21.196781342437
 42
-0.307251367470297
 10
-134.850909240135
 20
20.9637115120712
 10
-135.678421063848
 20
21.0056824355041
 42
0.414213562373131
 10
-136.098169287638
 20
20.6264576622821
 10
-136.184281620094
 20
18.928640043632
 42
0.414213562372976
 10
-135.805056846872
 20
18.5088918198421
 10
-133.60788110509
 20
18.3974523307805
 42
0.414213562373131
 10
-133.1881328813
 20
18.7766771040025
 10
-133.178002018658
 20
18.9764203532554
 42
-0.414213562373017
 10
-132.758253794868
 20
19.3556451264774
 10
-128.563645560556
 20
19.1428970109961
 42
-0.414213562373071
 10
-128.184420787334
 20
18.7231487872062
 10
-128.194551649976
 20
18.5234055379534
 42
0.414213562373173
 10
-127.815326876754
 20
18.1036573141635
 10
-125.618151134971
 20
17.9922178251018
 42
0.414213562373102
 10
-125.198402911181
 20
18.3714425983238
 10
-125.112290578725
 20
20.069260216974
 42
0.414213562373067
 10
-125.491515351947
 20
20.4890084407638
 10
-126.31893200277
 20
20.5309745370826
 42
-0.307340623197136
 10
-126.677421679422
 20
20.801824432976
 10
-127.809496490018
 20
24.1350508467733
 42
0.307536981072245
 10
-128.168272845176
 20
24.4059151797119
 10
-132.619768813507
 20
24.6284899781285
 42
0.307055041084762
 10
-133.003482080114
 20
24.3954057107174
  0
LWPOLYLINE
  5
27
100
AcDbEntity
  8
1
  6
CONTINUOUS
100
AcDbPolyline
 90
       25
 70
     1
 43
0.0
 10
128.029965511123
 20
11.3376261220322
 10
126.552788836981
 20
7.96412161328589
 42
-0.311733689821561
 10
126.166114787865
 20
7.72507827899686
 10
125.343402749651
 20
7.76680576007173
 42
0.414213562373066
 10
124.923654525861
 20
7.38758098684974
 10
124.837542193404
 20
5.68976336819957
 42
0.414213562373073
 10
125.216766966626
 20
5.27001514440972
 10
127.413942708409
 20
5.15857565534809
 42
0.414213562373123
 10
127.833690932199
 20
5.53780042857007
 10
127.843821794841
 20
5.73754367782305
 42
-0.414213562373084
 10
128.263570018631
 20
6.11676845104503
 10
132.757793126822
 20
5.88882404160078
 42
-0.414213562373092
 10
133.137017900044
 20
5.46907581781092
 10
133.126887037402
 20
5.26933256855796
 42
0.414213562372973
 10
133.506111810624
 20
4.84958434476811
 10
135.403672678527
 20
4.75334114966944
 42
0.414213562373105
 10
135.823420902317
 20
5.13256592289142
 10
135.909533234774
 20
6.83038354154159
 42
0.414213562373097
 10
135.530308461552
 20
7.25013176533145
 10
135.007305064737
 20
7.27665819660874
 42
-0.311820868591877
 10
134.646762452411
 20
7.55371897699394
 10
133.518705404113
 20
11.0625325143587
 42
0.312017724310454
 10
133.15787611328
 20
11.3396077317891
 10
128.416352881733
 20
11.5766838933665
 42
0.311536865874969
 10
128.029965511123
 20
11.3376261220322
  0
LWPOLYLINE
  5
28
100
AcDbEntity
  8
100
  6
CONTINUOUS
100
AcDbPolyline
 90
       60
 70
     0
 43
0.0
 10
-84.000000461936
 20
-1.5
 10
-76.000000461936
 20
-1.5
 10
-75.000000461936
 20
0.0
 10
-85.000000461936
 20
0.0
 10
-84.000000461936
 20
-1.5
 10
-84.000000461936
 20
-31.0
 10
-82.500000461936
 20
-34.0
 10
-82.500000461936
 20
-36.0
 10
-84.000000461936
 20
-36.0
 10
-83.500000461936
 20
-38.0
 10
-82.500000461936
 20
-39.0
 10
-82.500000461936
 20
-41.0
 10
-83.0448468181462
 20
-41.0
 42
0.0271772019824198
 10
-85.1175161115713
 20
-32.6456649660353
 42
0.415700385310206
 10
-85.6191430892248
 20
-32.3811012876511
 42
0.412728300954563
 10
-85.8823678548521
 20
-32.8801896146339
 42
-0.0331719885880051
 10
-83.500000461936
 20
-43.0
 10
-82.500000461936
 20
-44.0
 10
-82.500000461936
 20
-46.0
 10
-84.000000461936
 20
-46.0
 10
-83.500000461936
 20
-48.0
 10
-82.500000461936
 20
-49.0
 10
-82.500000461936
 20
-51.0
 10
-84.000000461936
 20
-51.0
 10
-83.500000461936
 20
-53.0
 10
-82.500000461936
 20
-54.0
 10
-82.500000461936
 20
-56.0
 10
-84.000000461936
 20
-56.0
 10
-83.500000461936
 20
-58.0
 10
-82.000000461936
 20
-60.0
 10
-80.400000461936
 20
-60.0
 10
-80.400000461936
 20
-25.5
 10
-79.600000461936
 20
-25.5
 10
-79.600000461936
 20
-60.0
 10
-78.000000461936
 20
-60.0
 10
-76.500000461936
 20
-58.0
 10
-76.000000461936
 20
-56.0
 10
-77.500000461936
 20
-56.0
 10
-77.500000461936
 20
-54.0
 10
-76.500000461936
 20
-53.0
 10
-76.000000461936
 20
-51.0
 10
-77.500000461936
 20
-51.0
 10
-77.500000461936
 20
-49.0
 10
-76.500000461936
 20
-48.0
 10
-76.000000461936
 20
-46.0
 10
-77.500000461936
 20
-46.0
 10
-77.500000461936
 20
-44.0
 10
-76.500000461936
 20
-43.0
 42
-0.0331719885880023
 10
-74.1176330690198
 20
-32.8801896146339
 42
0.412728300954564
 10
-74.3808578346472
 20
-32.3811012876511
 42
0.415700385310256
 10
-74.8824848123007
 20
-32.6456649660353
 42
0.0271772019824161
 10
-76.9551541057258
 20
-41.0
 10
-77.500000461936
 20
-41.0
 10
-77.500000461936
 20
-39.0
 10
-76.500000461936
 20
-38.0
 10
-76.000000461936
 20
-36.0
 10
-77.500000461936
 20
-36.0
 10
-77.500000461936
 20
-34.0
 10
-76.000000461936
 20
-31.0
 10
-76.000000461936
 20
-1.5
  0
LWPOLYLINE
  5
2A
100
AcDbEntity
  8
100
  6
CONTINUOUS
100
AcDbPolyline
 90
       60
 70
     0
 43
0.0
 10
75.999999538064
 20
-1.5
 10
83.999999538064
 20
-1.5
 10
84.999999538064
 20
0.0
 10
74.999999538064
 20
0.0
 10
75.999999538064
 20
-1.5
 10
75.999999538064
 20
-31.0
 10
77.499999538064
 20
-34.0
 10
77.499999538064
 20
-36.0
 10
75.999999538064
 20
-36.0
 10
76.499999538064
 20
-38.0
 10
77.499999538064
 20
-39.0
 10
77.499999538064
 20
-41.0
 10
76.9551531818538
 20
-41.0
 42
0.0271772019824198
 10
74.8824838884287
 20
-32.6456649660353
 42
0.415700385310179
 10
74.3808569107752
 20
-32.3811012876511
 42
0.41272830095456
 10
74.1176321451479
 20
-32.8801896146339
 42
-0.0331719885880051
 10
76.499999538064
 20
-43.0
 10
77.499999538064
 20
-44.0
 10
77.499999538064
 20
-46.0
 10
75.999999538064
 20
-46.0
 10
76.499999538064
 20
-48.0
 10
77.499999538064
 20
-49.0
 10
77.499999538064
 20
-51.0
 10
75.999999538064
 20
-51.0
 10
76.499999538064
 20
-53.0
 10
77.499999538064
 20
-54.0
 10
77.499999538064
 20
-56.0
 10
75.999999538064
 20
-56.0
 10
76.499999538064
 20
-58.0
 10
77.999999538064
 20
-60.0
 10
79.599999538064
 20
-60.0
 10
79.599999538064
 20
-25.5
 10
80.399999538064
 20
-25.5
 10
80.399999538064
 20
-60.0
 10
81.999999538064
 20
-60.0
 10
83.499999538064
 20
-58.0
 10
83.999999538064
 20
-56.0
 10
82.499999538064
 20
-56.0
 10
82.499999538064
 20
-54.0
 10
83.499999538064
 20
-53.0
 10
83.999999538064
 20
-51.0
 10
82.499999538064
 20
-51.0
 10
82.499999538064
 20
-49.0
 10
83.499999538064
 20
-48.0
 10
83.999999538064
 20
-46.0
 10
82.499999538064
 20
-46.0
 10
82.499999538064
 20
-44.0
 10
83.499999538064
 20
-43.0
 42
-0.0331719885880027
 10
85.8823669309802
 20
-32.8801896146339
 42
0.412728300954564
 10
85.6191421653528
 20
-32.3811012876511
 42
0.415700385310256
 10
85.1175151876993
 20
-32.6456649660353
 42
0.0271772019824129
 10
83.0448458942742
 20
-41.0
 10
82.499999538064
 20
-41.0
 10
82.499999538064
 20
-39.0
 10
83.499999538064
 20
-38.0
 10
83.999999538064
 20
-36.0
 10
82.499999538064
 20
-36.0
 10
82.499999538064
 20
-34.0
 10
83.999999538064
 20
-31.0
 10
83.999999538064
 20
-1.5
  0
LWPOLYLINE
  5
2B
100
AcDbEntity
  8
100
  6
CONTINUOUS
100
AcDbPolyline
 90
        5
 70
     1
 43
0.0
 10
-88.5055539614011
 20
7.5
 10
-88.5055539614011
 20
6.5
 10
-71.4944469624709
 20
6.5
 10
-71.4944469624709
 20
7.5
 10
-88.5055539614011
 20
7.5
  0
LWPOLYLINE
  5
2C
100
AcDbEntity
  8
100
  6
CONTINUOUS
100
AcDbPolyline
 90
       13
 70
     0
 43
0.0
 10
-74.3708353373372
 20
11.5
 10
-85.6291655865348
 20
11.5
 42
-0.249836762162559
 10
-83.7527772116685
 20
10.5
 42
-0.266469355010598
 10
-76.2472237122035
 20
10.5
 42
-0.532938710021194
 10
-72.4944469624709
 20
10.5
 10
-72.4944469624709
 20
7.5
 10
-76.2472237122035
 20
7.5
 10
-76.2472237122035
 20
10.5
 42
0.2664693550106
 10
-83.7527772116685
 20
10.5
 10
-83.7527772116685
 20
7.5
 10
-87.5055539614011
 20
7.5
 10
-87.5055539614011
 20
10.5
 42
-0.249836762162555
 10
-85.6291655865348
 20
11.5
  0
LWPOLYLINE
  5
2D
100
AcDbEntity
  8
100
  6
CONTINUOUS
100
AcDbPolyline
 90
       13
 70
     0
 43
0.0
 10
85.6291646626628
 20
11.5
 10
74.3708344134652
 20
11.5
 42
-0.249836762162564
 10
76.2472227883315
 20
10.5
 42
-0.266469355010598
 10
83.7527762877966
 20
10.5
 42
-0.532938710021194
 10
87.5055530375291
 20
10.5
 10
87.5055530375291
 20
7.5
 10
83.7527762877966
 20
7.5
 10
83.7527762877966
 20
10.5
 42
0.2664693550106
 10
76.2472227883315
 20
10.5
 10
76.2472227883315
 20
7.5
 10
72.4944460385989
 20
7.5
 10
72.4944460385989
 20
10.5
 42
-0.24983676216257
 10
74.3708344134652
 20
11.5
  0
LWPOLYLINE
  5
2E
100
AcDbEntity
  8
100
  6
CONTINUOUS
100
AcDbPolyline
 90
        5
 70
     1
 43
0.0
 10
71.4944460385989
 20
7.5
 10
71.4944460385989
 20
6.5
 10
88.5055530375291
 20
6.5
 10
88.5055530375291
 20
7.5
 10
71.4944460385989
 20
7.5
  0
DIMENSION
  5
3F
100
AcDbEntity
  8
3
  6
CONTINUOUS
100
AcDbDimension
  2
*D1
 10
180.293729549721
 20
12.5
 11
180.293729531576
 21
20.0000019073486
 70
    32
  3
ISO-25_0-333333
100
AcDbAlignedDimension
 13
-150.000000461936
 23
27.5
 14
149.999999538064
 24
12.5
 50
270.0
100
AcDbRotatedDimension
  0
DIMENSION
  5
4F
100
AcDbEntity
  8
3
  6
CONTINUOUS
100
AcDbDimension
  2
*D2
 10
149.999999538064
 20
55.2991209629587
 11
0.0
 21
55.2991216583489
 70
    32
  3
ISO-25_0-333333
100
AcDbAlignedDimension
 13
-150.000000461936
 23
23.2950031210998
 14
149.999999538064
 24
8.69500312109984
 50
0.0
100
AcDbRotatedDimension
  0
LWPOLYLINE
  5
50
100
AcDbEntity
  8
1
  6
CONTINUOUS
100
AcDbPolyline
 90
       93
 70
     1
 43
0.0
 10
140.124969274458
 20
-0.31343283582089
 42
-0.0958885389352512
 10
144.999999538064
 20
-25.5
 10
144.999999538064
 20
-35.2
 42
0.414213562373021
 10
145.299999538064
 20
-35.5
 10
146.499999538064
 20
-35.5
 42
0.414213562373102
 10
147.499999538064
 20
-34.5
 10
147.499999538064
 20
-25.5
 42
0.0360975411614255
 10
145.799026365635
 20
-1.96991049133937
 42
0.0971530897137724
 10
144.52233998252
 20
1.66202124442532
 10
140.773178326853
 20
8.03559605905956
 42
0.252254125095632
 10
139.961898424905
 20
8.52729217876096
 10
134.807316934355
 20
8.78872958529606
 42
0.414213562373244
 10
134.492505766512
 20
8.50431100537955
 10
134.446916884623
 20
7.60546638374124
 42
0.414213562373115
 10
134.73133546454
 20
7.29065521589886
 10
135.630180086178
 20
7.24506633401002
 42
-0.414213562373095
 10
135.914598666095
 20
6.93025516616762
 10
135.818355470996
 20
5.03269429826451
 42
-0.414213562372992
 10
135.503544303154
 20
4.74827571834802
 10
125.116895342
 20
5.27508057573027
 42
-0.414213562373128
 10
124.832476762083
 20
5.58989174357265
 10
124.928719957182
 20
7.48745261147578
 42
-0.414213562373098
 10
125.243531125024
 20
7.77187119139227
 10
126.142375746663
 20
7.72628230950343
 42
0.414213562373126
 10
126.457186914505
 20
8.01070088941991
 10
126.502775796394
 20
8.90954551105822
 42
0.41421356237312
 10
126.218357216477
 20
9.22435667890061
 10
124.520539597827
 20
9.31046901135733
 42
0.4142135623731
 10
123.471169038353
 20
8.36240707830238
 10
123.348779953387
 20
5.94934568679015
 42
-0.399447602452187
 10
122.350063707123
 20
5.0
 10
111.624263606776
 20
5.0
 42
-0.198912367379694
 10
111.41213157242
 20
5.08786796564404
 10
110.087867503708
 20
6.41213203435596
 42
0.198912367379642
 10
109.875735469352
 20
6.5
 10
80.299999538064
 20
6.5
 10
79.999999538064
 20
6.20000000000002
 10
79.699999538064
 20
6.5
 10
50.1242636067759
 20
6.5
 42
0.198912367379633
 10
49.91213157242
 20
6.41213203435596
 10
48.087867503708
 20
4.58786796564404
 42
-0.198912367379668
 10
47.8757354693521
 20
4.5
 10
0.299999538064
 20
4.5
 10
-4.61935982798423E-007
 20
4.20000000000002
 10
-0.300000461936008
 20
4.5
 10
-47.8757363932241
 20
4.5
 42
-0.198912367379664
 10
-48.08786842758
 20
4.58786796564404
 10
-50.000000461936
 20
6.5
 10
-79.700000461936
 20
6.5
 10
-80.000000461936
 20
6.20000000000002
 10
-80.300000461936
 20
6.5
 10
-109.875736393224
 20
6.5
 42
0.198912367379694
 10
-110.08786842758
 20
6.41213203435596
 10
-111.412132496292
 20
5.08786796564404
 42
-0.198912367379642
 10
-111.624264530648
 20
5.0
 10
-136.833724350618
 20
4.99999999999999
 42
-0.517758932419115
 10
-139.661770067676
 20
9.00107812993213
 10
-137.73020533401
 20
14.4577485025396
 42
-0.331737429394819
 10
-134.750196677322
 20
16.4528191114019
 10
-124.820615139753
 20
15.9491964506834
 42
0.414213562373093
 10
-123.771244580278
 20
16.8972583837383
 10
-123.568627327439
 20
20.8921233687975
 42
0.414213562373102
 10
-124.516689260494
 20
21.9414939282722
 10
-126.214506879144
 20
22.0276062607289
 42
0.414213562373124
 10
-126.529318046986
 20
21.7431876808124
 10
-126.574906928875
 20
20.8443430591741
 42
0.414213562373122
 10
-126.290488348959
 20
20.5295318913317
 10
-125.39164372732
 20
20.4839430094428
 42
-0.414213562373125
 10
-125.107225147404
 20
20.1691318416005
 10
-125.203468342502
 20
18.2715709736973
 42
-0.414213562373117
 10
-125.518279510345
 20
17.9871523937809
 10
-135.904928471499
 20
18.5139572511631
 42
-0.414213562373231
 10
-136.189347051415
 20
18.8287684190055
 10
-136.093103856317
 20
20.7263292869086
 42
-0.4142135623731
 10
-135.778292688474
 20
21.0107478668251
 10
-134.879448066836
 20
20.9651589849362
 42
0.414213562372972
 10
-134.564636898993
 20
21.2495775648527
 10
-134.519048017105
 20
22.1484221864911
 42
0.41421356237308
 10
-134.803466597021
 20
22.4632333543335
 10
-136.755438505063
 20
22.5622362460723
 42
0.331737429394816
 10
-137.748774723959
 20
21.8972127097849
 10
-145.188542117541
 20
0.87986982291446
 42
0.0474431631900609
 10
-145.648553959036
 20
-0.956865693321504
 42
0.0376647082192379
 10
-147.500000461936
 20
-25.5
 10
-147.500000461936
 20
-34.5
 42
0.414213562373106
 10
-146.500000461936
 20
-35.5
 10
-145.300000461936
 20
-35.5
 42
0.414213562373029
 10
-145.000000461936
 20
-35.2
 10
-145.000000461936
 20
-25.5
 42
-0.0958885389352489
 10
-140.12497019833
 20
-0.313432835820895
 42
-0.306164672913405
 10
-139.661081533616
 20
0.0
 10
139.661080609744
 20
0.0
 42
-0.30616467291339
 10
140.124969274458
 20
-0.313432835820892
  0
DIMENSION
  5
60
100
AcDbEntity
  8
3
  6
CONTINUOUS
100
AcDbDimension
  2
*D3
 10
180.293729549721
 20
-38.5
 11
180.293729549721
 21
-13.0
 70
    32
  3
ISO-25_0-333333
100
AcDbAlignedDimension
 13
154.5
 23
12.5
 14
149.699999538064
 24
-38.5
 50
270.0
100
AcDbRotatedDimension
  0
DIMENSION
  5
70
100
AcDbEntity
  8
3
  6
CONTINUOUS
100
AcDbDimension
  2
*D4
 10
-171.56098985881
 20
0.0
 11
-171.56098985881
 21
13.75
 70
    32
  3
ISO-25_0-333333
100
AcDbAlignedDimension
 13
-150.000000461936
 23
27.5
 14
-150.000000461936
 24
0.0
 50
270.0
100
AcDbRotatedDimension
  0
DIMENSION
  5
7F
100
AcDbEntity
  8
3
  6
CONTINUOUS
100
AcDbDimension
  2
*D5
 10
-171.56098985881
 20
-38.5
 11
-171.56098985881
 21
-19.25
 70
    32
  3
ISO-25_0-333333
100
AcDbAlignedDimension
 13
-150.000000461936
 23
0.0
 14
-150.000000461936
 24
-38.5
 50
270.0
100
AcDbRotatedDimension
1001
ACAD
1000
DSTYLE
1002
{
1070
    75
1070
     1
1002
}
  0
DIMENSION
  5
8F
100
AcDbEntity
  8
3
  6
CONTINUOUS
100
AcDbDimension
  2
*D6
 10
-189.992363239423
 20
27.5
 11
-189.992363239423
 21
-5.49999999999999
 70
    32
  3
ISO-25_0-333333
100
AcDbAlignedDimension
 13
-149.700000461936
 23
-38.5
 14
-150.000000461936
 24
27.5
 50
90.0
100
AcDbRotatedDimension
  0
MTEXT
  5
90
100
AcDbEntity
  8
4
  6
CONTINUOUS
100
AcDbMText
 10
-34.1236585852555
 20
-89.4991925671979
 40
13.4999995976687
 41
0.0
 11
1.0
 21
0.0
 71
     7
 72
     5
  7
STANDARD
  1
{\T1.03125;\W0.666667;AL-300}
  0
LWPOLYLINE
  5
92
100
AcDbEntity
  8
1
  6
CONTINUOUS
100
AcDbPolyline
 90
        5
 70
     1
 43
0.0
 10
-38.7385319005186
 20
-71.3239543524623
 10
23.6474631458279
 20
-71.3239543524623
 10
23.6474631458279
 20
-94.1744311842648
 10
-38.7385319005186
 20
-94.1744311842648
 10
-38.7385319005186
 20
-71.3239543524623
  0
ENDSEC
  0
SECTION
  2
OBJECTS
  0
DICTIONARY
  5
C
100
AcDbDictionary
  3
ACAD_GROUP
350
D
  3
ACAD_MLINESTYLE
350
E
  3
ACDBVARIABLEDICTIONARY
350
93
  0
DICTIONARY
  5
D
102
{ACAD_REACTORS
330
C
102
}
100
AcDbDictionary
  0
DICTIONARY
  5
E
102
{ACAD_REACTORS
330
C
102
}
100
AcDbDictionary
  3
STANDARD
350
13
  0
DICTIONARY
  5
93
102
{ACAD_REACTORS
330
C
102
}
330
C
100
AcDbDictionary
  3
SORTENTS
350
94
  0
MLINESTYLE
  5
13
102
{ACAD_REACTORS
330
E
102
}
100
AcDbMlineStyle
  2
STANDARD
 70
     0
  3

 62
   256
 51
90.0
 52
90.0
 71
     2
 49
0.5
 62
   256
  6
BYLAYER
 49
-0.5
 62
   256
  6
BYLAYER
  0
DICTIONARYVAR
  5
94
102
{ACAD_REACTORS
330
93
102
}
100
DictionaryVariables
280
     0
  1
96
  0
ENDSEC
  0
EOF
