  0
SECTION
  2
HEADER
  9
$ACADVER
  1
AC1014
  9
$ACADMAINTVER
 70
     0
  9
$DWGCODEPAGE
  3
ANSI_932
  9
$INSBASE
 10
0.0
 20
0.0
 30
0.0
  9
$EXTMIN
 10
-128.716690552685
 20
-99.326758782069
  9
$EXTMAX
 10
109.881958007813
 20
68.649772644043
  9
$LIMMIN
 10
-128.716690552685
 20
-99.326758782069
  9
$LIMMAX
 10
109.881958007813
 20
68.649772644043
  9
$ORTHOMODE
 70
     0
  9
$REGENMODE
 70
     1
  9
$FILLMODE
 70
     1
  9
$QTEXTMODE
 70
     0
  9
$MIRRTEXT
 70
     1
  9
$DRAGMODE
 70
     2
  9
$LTSCALE
 40
1.0
  9
$OSMODE
 70
     0
  9
$ATTMODE
 70
     1
  9
$TEXTSIZE
 40
3.0
  9
$TRACEWID
 40
0.5
  9
$TEXTSTYLE
  7
STANDARD
  9
$CLAYER
  8
0
  9
$CELTYPE
  6
BYLAYER
  9
$CECOLOR
 62
   256
  9
$CELTSCALE
 40
1.0
  9
$DELOBJ
 70
     1
  9
$DISPSILH
 70
     0
  9
$DIMSCALE
 40
1.0
  9
$DIMASZ
 40
3.0
  9
$DIMEXO
 40
1.0
  9
$DIMDLI
 40
5.0
  9
$DIMRND
 40
0.0
  9
$DIMDLE
 40
1.0
  9
$DIMEXE
 40
2.0
  9
$DIMTP
 40
0.0
  9
$DIMTM
 40
0.0
  9
$DIMTXT
 40
2.70000004768372
  9
$DIMCEN
 40
2.0
  9
$DIMTSZ
 40
0.0
  9
$DIMTOL
 70
     0
  9
$DIMLIM
 70
     0
  9
$DIMTIH
 70
     0
  9
$DIMTOH
 70
     0
  9
$DIMSE1
 70
     0
  9
$DIMSE2
 70
     0
  9
$DIMTAD
 70
     1
  9
$DIMZIN
 70
     8
  9
$DIMBLK
  1

  9
$DIMASO
 70
     1
  9
$DIMSHO
 70
     1
  9
$DIMPOST
  1

  9
$DIMAPOST
  1

  9
$DIMALT
 70
     0
  9
$DIMALTD
 70
     4
  9
$DIMALTF
 40
25.4
  9
$DIMLFAC
 40
1.0
  9
$DIMTOFL
 70
     1
  9
$DIMTVP
 40
1.0
  9
$DIMTIX
 70
     0
  9
$DIMSOXD
 70
     0
  9
$DIMSAH
 70
     0
  9
$DIMBLK1
  1

  9
$DIMBLK2
  1

  9
$DIMSTYLE
  2
ISO-25
  9
$DIMCLRD
 70
     0
  9
$DIMCLRE
 70
     0
  9
$DIMCLRT
 70
     0
  9
$DIMTFAC
 40
1.0
  9
$DIMGAP
 40
0.5
  9
$DIMJUST
 70
     0
  9
$DIMSD1
 70
     0
  9
$DIMSD2
 70
     0
  9
$DIMTOLJ
 70
     1
  9
$DIMTZIN
 70
     1
  9
$DIMALTZ
 70
     0
  9
$DIMALTTZ
 70
     0
  9
$DIMFIT
 70
     3
  9
$DIMUPT
 70
     0
  9
$DIMUNIT
 70
     2
  9
$DIMDEC
 70
     1
  9
$DIMTDEC
 70
     3
  9
$DIMALTU
 70
     8
  9
$DIMALTTD
 70
     4
  9
$DIMTXSTY
  7
STANDARD
  9
$DIMAUNIT
 70
     0
  9
$LUNITS
 70
     2
  9
$LUPREC
 70
     4
  9
$AXISMODE
 70
     0
  9
$AXISUNIT
 10
0.0
 20
0.0
  9
$SKETCHINC
 40
1.0
  9
$FILLETRAD
 40
0.0
  9
$AUNITS
 70
     0
  9
$AUPREC
 70
     0
  9
$MENU
  1
.
  9
$ELEVATION
 40
0.0
  9
$PELEVATION
 40
0.0
  9
$THICKNESS
 40
0.0
  9
$LIMCHECK
 70
     0
  9
$BLIPMODE
 70
     1
  9
$CHAMFERA
 40
0.0
  9
$CHAMFERB
 40
0.0
  9
$CHAMFERC
 40
0.0
  9
$CHAMFERD
 40
0.0
  9
$SKPOLY
 70
     0
  9
$TDCREATE
 40
2454821.65638889
  9
$TDUPDATE
 40
2454821.65638889
  9
$TDINDWG
 40
0.0
  9
$TDUSRTIMER
 40
0.0
  9
$USRTIMER
 70
     1
  9
$ANGBASE
 50
0.0
  9
$ANGDIR
 70
     0
  9
$PDMODE
 70
     0
  9
$PDSIZE
 40
0.0
  9
$PLINEWID
 40
0.0
  9
$COORDS
 70
     0
  9
$SPLFRAME
 70
     0
  9
$SPLINETYPE
 70
     6
  9
$SPLINESEGS
 70
     8
  9
$ATTDIA
 70
     0
  9
$ATTREQ
 70
     1
  9
$HANDLING
 70
     1
  9
$HANDSEED
  5
9E
  9
$SURFTAB1
 70
     6
  9
$SURFTAB2
 70
     6
  9
$SURFTYPE
 70
     6
  9
$SURFU
 70
     6
  9
$SURFV
 70
     6
  9
$UCSNAME
  2

  9
$UCSORG
 10
0.0
 20
0.0
 30
0.0
  9
$UCSXDIR
 10
1.0
 20
0.0
 30
0.0
  9
$UCSYDIR
 10
0.0
 20
1.0
 30
0.0
  9
$PUCSNAME
  2

  9
$PUCSORG
 10
0.0
 20
1.0
 30
0.0
  9
$PUCSXDIR
 10
1.0
 20
0.0
 30
0.0
  9
$PUCSYDIR
 10
0.0
 20
1.0
 30
0.0
  9
$USERI1
 70
     0
  9
$USERI2
 70
     0
  9
$USERI3
 70
     0
  9
$USERI4
 70
     0
  9
$USERI5
 70
     0
  9
$USERR1
 40
0.0
  9
$USERR2
 40
0.0
  9
$USERR3
 40
0.0
  9
$USERR4
 40
0.0
  9
$USERR5
 40
0.0
  9
$WORLDVIEW
 70
     1
  9
$SHADEDGE
 70
     3
  9
$SHADEDIF
 70
    70
  9
$TILEMODE
 70
     1
  9
$MAXACTVP
 70
    16
  9
$PINSBASE
 10
0.0
 20
1.0
 30
0.0
  9
$PLIMCHECK
 70
     0
  9
$PEXTMIN
 10
1.00000000000000E+020
 20
1.00000000000000E+020
 30
1.00000000000000E+020
  9
$PEXTMAX
 10
-1.00000000000000E+020
 20
-1.00000000000000E+020
 30
-1.00000000000000E+020
  9
$PLIMMIN
 10
-128.716690552685
 20
-99.326758782069
  9
$PLIMMAX
 10
109.881958007813
 20
68.649772644043
  9
$UNITMODE
 70
     0
  9
$VISRETAIN
 70
     0
  9
$PLINEGEN
 70
     0
  9
$PSLTSCALE
 70
     0
  9
$TREEDEPTH
 70
  3020
  9
$PICKSTYLE
 70
     1
  9
$CMLSTYLE
  2
STANDARD
  9
$CMLJUST
 70
     0
  9
$CMLSCALE
 40
1.0
  9
$PROXYGRAPHICS
 70
     1
  9
$MEASUREMENT
 70
     1
  0
ENDSEC
  0
SECTION
  2
CLASSES
  0
CLASS
  1
LWPOLYLINE
  2
AcDbPolyline
  3
"AutoCAD"
 90
        0
280
     0
281
     1
  0
CLASS
  1
DICTIONARYVAR
  2
AcDbDictionaryVar
  3
"AutoCAD"
 90
        0
280
     0
281
     1
  0
CLASS
  1
HATCH
  2
AcDbHatch
  3
"AutoCAD"
 90
        0
280
     0
281
     1
  0
ENDSEC
  0
SECTION
  2
TABLES
  0
TABLE
  2
VPORT
  5
8
100
AcDbSymbolTable
 70
     1
  0
VPORT
  5
94
100
AcDbSymbolTableRecord
100
AcDbViewportTableRecord
  2
*ACTIVE
 70
     0
 10
0.0
 20
0.0
 11
1.0
 21
1.0
 12
-9.41736627243604
 22
-15.338493069013
 13
0.0
 23
0.0
 14
0.0
 24
0.0
 15
0.0
 25
0.0
 16
0.0
 26
0.0
 36
1.0
 17
0.0
 27
0.0
 37
0.0
 40
167.976531426112
 41
1.5
 42
50.0
 43
0.0
 44
0.0
 50
0.0
 51
0.0
 71
     0
 72
   100
 73
     1
 74
     1
 75
     0
 76
     0
 77
     0
 78
     0
  0
ENDTAB
  0
TABLE
  2
LTYPE
  5
5
100
AcDbSymbolTable
 70
    20
  0
LTYPE
  5
95
100
AcDbSymbolTableRecord
100
AcDbLinetypeTableRecord
  2
BYBLOCK
 70
     0
  3

 72
    65
 73
     0
 40
0.0
  0
LTYPE
  5
96
100
AcDbSymbolTableRecord
100
AcDbLinetypeTableRecord
  2
BYLAYER
 70
     0
  3

 72
    65
 73
     0
 40
0.0
  0
LTYPE
  5
97
100
AcDbSymbolTableRecord
100
AcDbLinetypeTableRecord
  2
CONTINUOUS
 70
    64
  3
solid line
 72
    65
 73
     0
 40
0.0
  0
ENDTAB
  0
TABLE
  2
LAYER
  5
2
100
AcDbSymbolTable
 70
    20
  0
LAYER
  5
98
100
AcDbSymbolTableRecord
100
AcDbLayerTableRecord
  2
0
 70
    64
 62
     7
  6
CONTINUOUS
  0
LAYER
  5
25
100
AcDbSymbolTableRecord
100
AcDbLayerTableRecord
  2
100
 70
    64
 62
     7
  6
CONTINUOUS
  0
LAYER
  5
3B
100
AcDbSymbolTableRecord
100
AcDbLayerTableRecord
  2
3
 70
    64
 62
     7
  6
CONTINUOUS
  0
LAYER
  5
8D
100
AcDbSymbolTableRecord
100
AcDbLayerTableRecord
  2
4
 70
    64
 62
     7
  6
CONTINUOUS
  0
LAYER
  5
8F
100
AcDbSymbolTableRecord
100
AcDbLayerTableRecord
  2
1
 70
    64
 62
     7
  6
CONTINUOUS
  0
LAYER
  5
99
100
AcDbSymbolTableRecord
100
AcDbLayerTableRecord
  2
DEFPOINTS
 70
     0
 62
    -7
  6
CONTINUOUS
  0
ENDTAB
  0
TABLE
  2
STYLE
  5
3
100
AcDbSymbolTable
 70
     4
  0
STYLE
  5
9A
100
AcDbSymbolTableRecord
100
AcDbTextStyleTableRecord
  2
STANDARD
 70
    64
 40
0.0
 41
1.0
 50
0.0
 71
     0
 42
8.99999973177911
  3
monotxt
  4

  0
ENDTAB
  0
TABLE
  2
VIEW
  5
6
100
AcDbSymbolTable
 70
     0
  0
ENDTAB
  0
TABLE
  2
UCS
  5
7
100
AcDbSymbolTable
 70
     0
  0
ENDTAB
  0
TABLE
  2
APPID
  5
9
100
AcDbSymbolTable
 70
     1
  0
APPID
  5
9B
100
AcDbSymbolTableRecord
100
AcDbRegAppTableRecord
  2
ACAD
 70
     0
  0
ENDTAB
  0
TABLE
  2
DIMSTYLE
  5
A
100
AcDbSymbolTable
 70
     8
  0
DIMSTYLE
105
9C
100
AcDbSymbolTableRecord
100
AcDbDimStyleTableRecord
  2
ISO-25
 70
     0
  3

  4

  5

  6

  7

 40
1.0
 41
3.0
 42
1.0
 43
5.0
 44
2.0
 45
0.0
 46
1.0
 47
0.0
 48
0.0
140
2.70000004768372
141
2.0
142
0.0
143
25.4
144
1.0
145
1.0
146
1.0
147
0.5
 71
     0
 72
     0
 73
     0
 74
     0
 75
     0
 76
     0
 77
     1
 78
     8
170
     0
171
     0
172
     1
173
     0
174
     0
175
     0
176
     0
177
     0
178
     0
270
     2
271
     1
272
     3
273
     8
274
     4
340
9A
275
     0
280
     0
281
     0
282
     0
283
     1
284
     1
285
     0
286
     0
287
     3
288
     0
  0
DIMSTYLE
105
9D
100
AcDbSymbolTableRecord
100
AcDbDimStyleTableRecord
  2
ISO-25_0-333333
 70
     0
  3

  4

  5

  6

  7

 40
1.0
 41
8.99999973177911
 42
2.99999991059304
 43
14.9999995529652
 44
5.99999982118607
 45
0.0
 46
2.99999991059304
 47
0.0
 48
0.0
140
8.09999990165234
141
5.99999982118607
142
0.0
143
25.4
144
1.0
145
1.0
146
1.0
147
1.49999995529652
 71
     0
 72
     0
 73
     0
 74
     0
 75
     0
 76
     0
 77
     1
 78
     8
170
     0
171
     0
172
     1
173
     0
174
     0
175
     0
176
     0
177
     0
178
     0
270
     2
271
     1
272
     3
273
     8
274
     4
340
9A
275
     0
280
     0
281
     0
282
     0
283
     1
284
     1
285
     0
286
     0
287
     3
288
     0
  0
ENDTAB
  0
TABLE
  2
BLOCK_RECORD
  5
1
100
AcDbSymbolTable
 70
     2
  0
BLOCK_RECORD
  5
20
100
AcDbSymbolTableRecord
100
AcDbBlockTableRecord
  2
*MODEL_SPACE
  0
BLOCK_RECORD
  5
22
100
AcDbSymbolTableRecord
100
AcDbBlockTableRecord
  2
*PAPER_SPACE
  0
BLOCK_RECORD
  5
2C
100
AcDbSymbolTableRecord
100
AcDbBlockTableRecord
  2
*D1
  0
BLOCK_RECORD
  5
3D
100
AcDbSymbolTableRecord
100
AcDbBlockTableRecord
  2
*D2
  0
BLOCK_RECORD
  5
4D
100
AcDbSymbolTableRecord
100
AcDbBlockTableRecord
  2
*D3
  0
BLOCK_RECORD
  5
5D
100
AcDbSymbolTableRecord
100
AcDbBlockTableRecord
  2
*D4
  0
BLOCK_RECORD
  5
6D
100
AcDbSymbolTableRecord
100
AcDbBlockTableRecord
  2
*D5
  0
BLOCK_RECORD
  5
7C
100
AcDbSymbolTableRecord
100
AcDbBlockTableRecord
  2
*D6
  0
ENDTAB
  0
ENDSEC
  0
SECTION
  2
BLOCKS
  0
BLOCK
  5
21
100
AcDbEntity
  8
0
100
AcDbBlockBegin
  2
*MODEL_SPACE
 70
     0
 10
0.0
 20
0.0
 30
0.0
  3
*MODEL_SPACE
  1

  0
ENDBLK
  5
92
100
AcDbEntity
  8
0
100
AcDbBlockEnd
  0
BLOCK
  5
23
100
AcDbEntity
 67
     1
  8
0
100
AcDbBlockBegin
  2
*PAPER_SPACE
 70
     0
 10
0.0
 20
0.0
 30
0.0
  3
*PAPER_SPACE
  1

  0
ENDBLK
  5
93
100
AcDbEntity
 67
     1
  8
0
100
AcDbBlockEnd
  0
BLOCK
  5
2D
100
AcDbEntity
  8
0
100
AcDbBlockBegin
  2
*D1
 70
    65
 10
0.0
 20
0.0
  0
LINE
  5
2E
100
AcDbEntity
  8
0
  6
CONTINUOUS
100
AcDbLine
 10
103.881958007813
 20
27.8485717773438
 11
103.881958007813
 21
20.3485717773438
  0
CIRCLE
  5
2F
100
AcDbEntity
  8
0
  6
CONTINUOUS
100
AcDbCircle
 10
103.881958007813
 20
27.8485717773438
 40
1.12499996647239
  0
CIRCLE
  5
30
100
AcDbEntity
  8
0
  6
CONTINUOUS
100
AcDbCircle
 10
103.881958007813
 20
27.8485717773438
 40
0.562499983236194
  0
LINE
  5
31
100
AcDbEntity
  8
0
  6
CONTINUOUS
100
AcDbLine
 10
103.881958007813
 20
12.8485708236694
 11
103.881958007813
 21
20.3485717773438
  0
CIRCLE
  5
32
100
AcDbEntity
  8
0
  6
CONTINUOUS
100
AcDbCircle
 10
103.881958007813
 20
12.8485708236694
 40
1.12499996647239
  0
CIRCLE
  5
33
100
AcDbEntity
  8
0
  6
CONTINUOUS
100
AcDbCircle
 10
103.881958007813
 20
12.8485708236694
 40
0.562499983236194
  0
LINE
  5
34
100
AcDbEntity
  8
0
  6
CONTINUOUS
100
AcDbLine
 10
-70.5
 20
27.8485717773438
 11
109.881958007813
 21
27.8485717773438
  0
LINE
  5
35
100
AcDbEntity
  8
0
  6
CONTINUOUS
100
AcDbLine
 10
79.5
 20
12.8485708236694
 11
109.881958007813
 21
12.8485708236694
  0
MTEXT
  5
36
100
AcDbEntity
  8
0
  6
CONTINUOUS
100
AcDbMText
 10
102.381958007813
 20
15.5391979217529
 40
8.0999997586012
 41
0.0
 11
6.12323399573677E-017
 21
1.0
 71
     7
 72
     5
  7
STANDARD
  1
{\T1.03125;\W0.666667;15}
 73
     1
 44
1.0
  0
POINT
  5
37
100
AcDbEntity
  8
DEFPOINTS
  6
BYBLOCK
 62
     0
100
AcDbPoint
 10
-75.0000002443185
 20
27.8485707739497
  0
POINT
  5
38
100
AcDbEntity
  8
DEFPOINTS
  6
BYBLOCK
 62
     0
100
AcDbPoint
 10
74.9999997556815
 20
12.8485707739497
  0
POINT
  5
39
100
AcDbEntity
  8
DEFPOINTS
  6
BYBLOCK
 62
     0
100
AcDbPoint
 10
103.881958065716
 20
12.8485707739497
  0
ENDBLK
  5
3A
100
AcDbEntity
  8
3
100
AcDbBlockEnd
  0
BLOCK
  5
3E
100
AcDbEntity
  8
0
100
AcDbBlockBegin
  2
*D2
 70
    65
 10
0.0
 20
0.0
  0
LINE
  5
3F
100
AcDbEntity
  8
0
  6
CONTINUOUS
100
AcDbLine
 10
-75.0
 20
57.5497779846191
 11
1.90734863281250E-006
 21
57.5497779846191
  0
CIRCLE
  5
40
100
AcDbEntity
  8
0
  6
CONTINUOUS
100
AcDbCircle
 10
-75.0
 20
57.5497779846191
 40
1.12499996647239
  0
CIRCLE
  5
41
100
AcDbEntity
  8
0
  6
CONTINUOUS
100
AcDbCircle
 10
-75.0
 20
57.5497779846191
 40
0.562499983236194
  0
LINE
  5
42
100
AcDbEntity
  8
0
  6
CONTINUOUS
100
AcDbLine
 10
75.0
 20
57.5497779846191
 11
1.90734863281250E-006
 21
57.5497779846191
  0
CIRCLE
  5
43
100
AcDbEntity
  8
0
  6
CONTINUOUS
100
AcDbCircle
 10
75.0
 20
57.5497779846191
 40
1.12499996647239
  0
CIRCLE
  5
44
100
AcDbEntity
  8
0
  6
CONTINUOUS
100
AcDbCircle
 10
75.0
 20
57.5497779846191
 40
0.562499983236194
  0
LINE
  5
45
100
AcDbEntity
  8
0
  6
CONTINUOUS
100
AcDbLine
 10
-75.0
 20
27.9286212921143
 11
-75.0
 21
63.5497779846191
  0
LINE
  5
46
100
AcDbEntity
  8
0
  6
CONTINUOUS
100
AcDbLine
 10
75.0
 20
13.7286205291748
 11
75.0
 21
63.5497779846191
  0
MTEXT
  5
47
100
AcDbEntity
  8
0
  6
CONTINUOUS
100
AcDbMText
 10
-7.59375
 20
59.0497779846191
 40
8.0999997586012
 41
0.0
 11
1.0
 21
0.0
 71
     7
 72
     5
  7
STANDARD
  1
{\T1.03125;\W0.666667;150}
 73
     1
 44
1.0
  0
POINT
  5
48
100
AcDbEntity
  8
DEFPOINTS
  6
BYBLOCK
 62
     0
100
AcDbPoint
 10
-75.0000002443185
 20
23.4286205255013
  0
POINT
  5
49
100
AcDbEntity
  8
DEFPOINTS
  6
BYBLOCK
 62
     0
100
AcDbPoint
 10
74.9999997556815
 20
9.22862052550131
  0
POINT
  5
4A
100
AcDbEntity
  8
DEFPOINTS
  6
BYBLOCK
 62
     0
100
AcDbPoint
 10
74.9999997556815
 20
57.5497770889999
  0
ENDBLK
  5
4B
100
AcDbEntity
  8
3
100
AcDbBlockEnd
  0
BLOCK
  5
4E
100
AcDbEntity
  8
0
100
AcDbBlockBegin
  2
*D3
 70
    65
 10
0.0
 20
0.0
  0
LINE
  5
4F
100
AcDbEntity
  8
0
  6
CONTINUOUS
100
AcDbLine
 10
103.881958007813
 20
12.8485708236694
 11
103.881958007813
 21
-12.6514292011905
  0
CIRCLE
  5
50
100
AcDbEntity
  8
0
  6
CONTINUOUS
100
AcDbCircle
 10
103.881958007813
 20
12.8485708236694
 40
1.12499996647239
  0
CIRCLE
  5
51
100
AcDbEntity
  8
0
  6
CONTINUOUS
100
AcDbCircle
 10
103.881958007813
 20
12.8485708236694
 40
0.562499983236194
  0
LINE
  5
52
100
AcDbEntity
  8
0
  6
CONTINUOUS
100
AcDbLine
 10
103.881958007813
 20
-38.1514292260503
 11
103.881958007813
 21
-12.6514292011905
  0
CIRCLE
  5
53
100
AcDbEntity
  8
0
  6
CONTINUOUS
100
AcDbCircle
 10
103.881958007813
 20
-38.1514292260503
 40
1.12499996647239
  0
CIRCLE
  5
54
100
AcDbEntity
  8
0
  6
CONTINUOUS
100
AcDbCircle
 10
103.881958007813
 20
-38.1514292260503
 40
0.562499983236194
  0
LINE
  5
55
100
AcDbEntity
  8
0
  6
CONTINUOUS
100
AcDbLine
 10
83.9999998658895
 20
12.8485708236694
 11
109.881957828999
 21
12.8485708236694
  0
LINE
  5
56
100
AcDbEntity
  8
0
  6
CONTINUOUS
100
AcDbLine
 10
79.199999621571
 20
-38.1514292260503
 11
109.881957828999
 21
-38.1514292260503
  0
MTEXT
  5
57
100
AcDbEntity
  8
0
  6
CONTINUOUS
100
AcDbMText
 10
102.381958052516
 20
-17.4608041427965
 40
8.09999990165234
 41
0.0
 11
6.12323399573677E-017
 21
1.0
 71
     7
 72
     5
  7
STANDARD
  1
{\T1.03125;\W0.666667;51}
 73
     1
 44
1.0
  0
POINT
  5
58
100
AcDbEntity
  8
DEFPOINTS
  6
BYBLOCK
 62
     0
100
AcDbPoint
 10
79.5
 20
12.8485708236694
  0
POINT
  5
59
100
AcDbEntity
  8
DEFPOINTS
  6
BYBLOCK
 62
     0
100
AcDbPoint
 10
74.6999997556815
 20
-38.1514292260503
  0
POINT
  5
5A
100
AcDbEntity
  8
DEFPOINTS
  6
BYBLOCK
 62
     0
100
AcDbPoint
 10
103.881958007813
 20
-38.1514292260503
  0
ENDBLK
  5
5B
100
AcDbEntity
  8
3
100
AcDbBlockEnd
  0
BLOCK
  5
5E
100
AcDbEntity
  8
0
100
AcDbBlockBegin
  2
*D4
 70
    65
 10
0.0
 20
0.0
  0
LINE
  5
5F
100
AcDbEntity
  8
0
  6
CONTINUOUS
100
AcDbLine
 10
-96.6369425054194
 20
27.8485707739497
 11
-96.6369425054194
 21
13.9242853869748
  0
CIRCLE
  5
60
100
AcDbEntity
  8
0
  6
CONTINUOUS
100
AcDbCircle
 10
-96.6369425054194
 20
27.8485707739497
 40
1.12499996647239
  0
CIRCLE
  5
61
100
AcDbEntity
  8
0
  6
CONTINUOUS
100
AcDbCircle
 10
-96.6369425054194
 20
27.8485707739497
 40
0.562499983236194
  0
LINE
  5
62
100
AcDbEntity
  8
0
  6
CONTINUOUS
100
AcDbLine
 10
-96.6369425054194
 20
0.0
 11
-96.6369425054194
 21
13.9242853869748
  0
CIRCLE
  5
63
100
AcDbEntity
  8
0
  6
CONTINUOUS
100
AcDbCircle
 10
-96.6369425054194
 20
0.0
 40
1.12499996647239
  0
CIRCLE
  5
64
100
AcDbEntity
  8
0
  6
CONTINUOUS
100
AcDbCircle
 10
-96.6369425054194
 20
0.0
 40
0.562499983236194
  0
LINE
  5
65
100
AcDbEntity
  8
0
  6
CONTINUOUS
100
AcDbLine
 10
-79.5000001102081
 20
27.8485707739497
 11
-102.636942326605
 21
27.8485707739497
  0
LINE
  5
66
100
AcDbEntity
  8
0
  6
CONTINUOUS
100
AcDbLine
 10
-72.2977919804271
 20
0.0
 11
-102.636942326605
 21
0.0
  0
MTEXT
  5
67
100
AcDbEntity
  8
0
  6
CONTINUOUS
100
AcDbMText
 10
-98.1369424607159
 20
9.11491044536875
 40
8.09999990165234
 41
0.0
 11
6.12323399573677E-017
 21
1.0
 71
     7
 72
     5
  7
STANDARD
  1
{\T1.03125;\W0.666667;28}
 73
     1
 44
1.0
  0
POINT
  5
68
100
AcDbEntity
  8
DEFPOINTS
  6
BYBLOCK
 62
     0
100
AcDbPoint
 10
-75.0000002443185
 20
27.8485707739497
  0
POINT
  5
69
100
AcDbEntity
  8
DEFPOINTS
  6
BYBLOCK
 62
     0
100
AcDbPoint
 10
-67.7977921145376
 20
0.0
  0
POINT
  5
6A
100
AcDbEntity
  8
DEFPOINTS
  6
BYBLOCK
 62
     0
100
AcDbPoint
 10
-96.6369425054194
 20
0.0
  0
ENDBLK
  5
6B
100
AcDbEntity
  8
3
100
AcDbBlockEnd
  0
BLOCK
  5
6E
100
AcDbEntity
  8
0
100
AcDbBlockBegin
  2
*D5
 70
    65
 10
0.0
 20
0.0
  0
LINE
  5
6F
100
AcDbEntity
  8
0
  6
CONTINUOUS
100
AcDbLine
 10
-96.6369425054194
 20
0.0
 11
-96.6369425054194
 21
-19.0757146130252
  0
CIRCLE
  5
70
100
AcDbEntity
  8
0
  6
CONTINUOUS
100
AcDbCircle
 10
-96.6369425054194
 20
0.0
 40
1.12499996647239
  0
CIRCLE
  5
71
100
AcDbEntity
  8
0
  6
CONTINUOUS
100
AcDbCircle
 10
-96.6369425054194
 20
0.0
 40
0.562499983236194
  0
LINE
  5
72
100
AcDbEntity
  8
0
  6
CONTINUOUS
100
AcDbLine
 10
-96.6369425054194
 20
-38.1514292260503
 11
-96.6369425054194
 21
-19.0757146130252
  0
CIRCLE
  5
73
100
AcDbEntity
  8
0
  6
CONTINUOUS
100
AcDbCircle
 10
-96.6369425054194
 20
-38.1514292260503
 40
1.12499996647239
  0
CIRCLE
  5
74
100
AcDbEntity
  8
0
  6
CONTINUOUS
100
AcDbCircle
 10
-96.6369425054194
 20
-38.1514292260503
 40
0.562499983236194
  0
LINE
  5
75
100
AcDbEntity
  8
0
  6
CONTINUOUS
100
AcDbLine
 10
-79.5000001102081
 20
-38.1514292260503
 11
-102.636942326605
 21
-38.1514292260503
  0
MTEXT
  5
76
100
AcDbEntity
  8
0
  6
CONTINUOUS
100
AcDbMText
 10
-98.1369424607159
 20
-23.8850895546312
 40
8.09999990165234
 41
0.0
 11
6.12323399573677E-017
 21
1.0
 71
     7
 72
     5
  7
STANDARD
  1
{\T1.03125;\W0.666667;38}
 73
     1
 44
1.0
  0
POINT
  5
77
100
AcDbEntity
  8
DEFPOINTS
  6
BYBLOCK
 62
     0
100
AcDbPoint
 10
-67.7977921145376
 20
0.0
  0
POINT
  5
78
100
AcDbEntity
  8
DEFPOINTS
  6
BYBLOCK
 62
     0
100
AcDbPoint
 10
-75.0000002443185
 20
-38.1514292260503
  0
POINT
  5
79
100
AcDbEntity
  8
DEFPOINTS
  6
BYBLOCK
 62
     0
100
AcDbPoint
 10
-96.6369425054194
 20
-38.1514292260503
  0
ENDBLK
  5
7A
100
AcDbEntity
  8
3
100
AcDbBlockEnd
  0
BLOCK
  5
7D
100
AcDbEntity
  8
0
100
AcDbBlockBegin
  2
*D6
 70
    65
 10
0.0
 20
0.0
  0
LINE
  5
7E
100
AcDbEntity
  8
0
  6
CONTINUOUS
100
AcDbLine
 10
-117.616690740439
 20
-38.1514292260503
 11
-117.616690740439
 21
-5.15142922605034
  0
CIRCLE
  5
7F
100
AcDbEntity
  8
0
  6
CONTINUOUS
100
AcDbCircle
 10
-117.616690740439
 20
-38.1514292260503
 40
1.12499996647239
  0
CIRCLE
  5
80
100
AcDbEntity
  8
0
  6
CONTINUOUS
100
AcDbCircle
 10
-117.616690740439
 20
-38.1514292260503
 40
0.562499983236194
  0
LINE
  5
81
100
AcDbEntity
  8
0
  6
CONTINUOUS
100
AcDbLine
 10
-117.616690740439
 20
27.8485707739497
 11
-117.616690740439
 21
-5.15142922605034
  0
CIRCLE
  5
82
100
AcDbEntity
  8
0
  6
CONTINUOUS
100
AcDbCircle
 10
-117.616690740439
 20
27.8485707739497
 40
1.12499996647239
  0
CIRCLE
  5
83
100
AcDbEntity
  8
0
  6
CONTINUOUS
100
AcDbCircle
 10
-117.616690740439
 20
27.8485707739497
 40
0.562499983236194
  0
LINE
  5
84
100
AcDbEntity
  8
0
  6
CONTINUOUS
100
AcDbLine
 10
-83.9999999760976
 20
-38.1514292260503
 11
-123.616690561625
 21
-38.1514292260503
  0
LINE
  5
85
100
AcDbEntity
  8
0
  6
CONTINUOUS
100
AcDbLine
 10
-83.9999999760976
 20
27.8485707739497
 11
-123.616690561625
 21
27.8485707739497
  0
MTEXT
  5
86
100
AcDbEntity
  8
0
  6
CONTINUOUS
100
AcDbMText
 10
-119.116690695736
 20
-9.96080416765641
 40
8.09999990165234
 41
0.0
 11
6.12323399573677E-017
 21
1.0
 71
     7
 72
     5
  7
STANDARD
  1
{\T1.03125;\W0.666667;66}
 73
     1
 44
1.0
  0
POINT
  5
87
100
AcDbEntity
  8
DEFPOINTS
  6
BYBLOCK
 62
     0
100
AcDbPoint
 10
-79.5000001102081
 20
-38.1514292260503
  0
POINT
  5
88
100
AcDbEntity
  8
DEFPOINTS
  6
BYBLOCK
 62
     0
100
AcDbPoint
 10
-79.5000001102081
 20
27.8485707739497
  0
POINT
  5
89
100
AcDbEntity
  8
DEFPOINTS
  6
BYBLOCK
 62
     0
100
AcDbPoint
 10
-117.616690740439
 20
27.8485707739497
  0
ENDBLK
  5
8A
100
AcDbEntity
  8
3
100
AcDbBlockEnd
  0
ENDSEC
  0
SECTION
  2
ENTITIES
  0
LWPOLYLINE
  5
24
100
AcDbEntity
  8
100
  6
CONTINUOUS
100
AcDbPolyline
 90
       91
 70
     1
 43
0.0
 10
-63.0127532943788
 20
22.7204158192522
 10
-61.1103487629246
 20
22.5272485899046
 42
-0.414213562373083
 10
-60.8421891274099
 20
22.1984775299242
 10
-60.9331062641084
 20
21.3030814866816
 42
-0.414213562373109
 10
-61.2618773240888
 20
21.0349218511668
 10
-62.1572733673314
 20
21.1258389878653
 42
0.414213562373118
 10
-62.4860444273118
 20
20.8576793523506
 10
-62.6779806047863
 20
18.9673988166162
 42
0.414213562373095
 10
-62.4098209692716
 20
18.6386277566358
 10
-52.0630222473568
 20
17.5880297325645
 42
0.414213562373118
 10
-51.7342511873765
 20
17.8561893680792
 10
-51.5423150099019
 20
19.7464699038136
 42
0.414213562373095
 10
-51.8104746454166
 20
20.075240963794
 10
-52.7058706886592
 20
20.1661581004925
 42
-0.414213562373083
 10
-52.9740303241739
 20
20.4949291604728
 10
-52.8831131874755
 20
21.3903252037155
 42
-0.414213562373079
 10
-52.5543421274951
 20
21.6584848392302
 10
-50.863038490259
 20
21.4867524699108
 42
-0.414213562373098
 10
-49.9691730385433
 20
20.3908489366429
 10
-50.3732492016477
 20
16.4113109666757
 42
-0.414213562373099
 10
-51.4691527349156
 20
15.51744551496
 10
-60.9301942343653
 20
16.4781051133656
 42
0.3465891522208
 10
-64.0640513030922
 20
14.4867147749775
 10
-66.3424553858607
 20
7.99326313908724
 42
0.516883626458221
 10
-63.511655439462
 20
4.0
 10
-32.4208009613644
 20
4.0
 42
0.198912367379645
 10
-32.2086689270085
 20
4.08786796564404
 10
-30.3844048582965
 20
5.91213203435596
 42
-0.198912367379639
 10
-30.1722728239406
 20
6.0
 10
-0.596536892652523
 20
6.0
 10
-0.296536892652483
 20
5.70000000000002
 10
0.00346310734748556
 20
6.0
 10
29.5791990386356
 20
6.0
 42
-0.198912367379652
 10
29.7913310729915
 20
5.91213203435596
 10
31.6155951417035
 20
4.08786796564404
 42
0.198912367379668
 10
31.8277271760594
 20
4.0
 10
47.6438335956612
 20
4.0
 42
0.384876372724254
 10
48.638718088153
 20
4.89898095922391
 10
49.1894076942107
 20
10.3224392007017
 42
-0.414213562373093
 10
50.2853112274786
 20
11.2163046524174
 10
51.9766148647147
 20
11.0445722830981
 42
-0.41421356237309
 10
52.2447745002294
 20
10.7158012231177
 10
52.1538573635309
 20
9.82040517987511
 42
-0.414213562373078
 10
51.8250863035505
 20
9.55224554436038
 10
50.9296902603079
 20
9.64316268105887
 42
0.414213562373123
 10
50.6009192003275
 20
9.37500304554415
 10
50.408983022853
 20
7.48472250980972
 42
0.414213562373114
 10
50.6771426583677
 20
7.15595144982935
 10
61.0239413802825
 20
6.10535342575801
 42
0.414213562373123
 10
61.3527124402628
 20
6.37351306127272
 10
61.5446486177374
 20
8.26379359700715
 42
0.414213562373086
 10
61.2764889822227
 20
8.59256465698752
 10
60.3810929389801
 20
8.683481793686
 42
-0.414213562373154
 10
60.1129333034654
 20
9.01225285366637
 10
60.2038504401638
 20
9.907648896909
 42
-0.414213562373105
 10
60.5326215001442
 20
10.1758085324237
 10
65.6667630512763
 20
9.65449569800107
 42
-0.252528929534292
 10
66.4526580946672
 20
9.12154562434623
 10
70.4290579917163
 20
1.48685782201191
 42
-0.0845252858506265
 10
71.458023414318
 20
-1.70858595509663
 42
-0.0357341089685438
 10
73.2034631073475
 20
-26.1
 10
73.2034631073475
 20
-33.5266614090644
 42
-0.120457414676814
 10
73.1696281477179
 20
-33.665067230057
 10
72.3648158439895
 20
-35.2127831987654
 42
-0.414213562373113
 10
71.0162463061129
 20
-35.638647263358
 10
70.3951945452487
 20
-35.3157003477086
 42
-0.414213562373182
 10
70.2674353258709
 20
-34.9111294863456
 10
70.6696281477179
 20
-34.1376817520245
 42
0.120457414677026
 10
70.7034631073475
 20
-33.9992759310319
 10
70.7034631073475
 20
-26.1
 42
0.0641405932099493
 10
67.4685432361916
 20
-0.9863301787592
 42
0.341012969462003
 10
63.5991151785188
 20
2.0
 10
54.547436944601
 20
2.0
 42
0.414213562373092
 10
52.547436944601
 20
0.0
 10
52.547436944601
 20
0.0
 10
-67.4152325358927
 20
0.0
 42
0.339218761955473
 10
-67.8980859620754
 20
-0.370182555780932
 42
0.065755552688166
 10
-71.2965368926525
 20
-26.1
 10
-71.2965368926525
 20
-33.9992759310319
 42
0.120457414676794
 10
-71.2627019330229
 20
-34.1376817520245
 10
-70.8605091111759
 20
-34.9111294863456
 42
-0.414213562373126
 10
-70.9882683305537
 20
-35.3157003477086
 10
-71.6093200914179
 20
-35.638647263358
 42
-0.414213562373096
 10
-72.9578896292945
 20
-35.2127831987654
 10
-73.7627019330229
 20
-33.6650672300569
 42
-0.120457414676826
 10
-73.7965368926525
 20
-33.5266614090644
 10
-73.7965368926525
 20
-26.1
 42
-0.0368444420175014
 10
-71.9412417971968
 20
-0.95677069643018
 42
-0.047572072158766
 10
-71.4855483958435
 20
0.886317215905589
 10
-64.0573723172878
 20
22.0566190397895
 42
-0.346589152220797
 10
-63.0127532943788
 20
22.7204158192522
  0
LWPOLYLINE
  5
26
100
AcDbEntity
  8
100
  6
CONTINUOUS
100
AcDbPolyline
 90
       49
 70
     1
 43
0.0
 10
-75.0000002443185
 20
23.4286205255013
 10
-75.0000002443185
 20
-37.8514292260503
 42
0.414213562373054
 10
-74.7000002443185
 20
-38.1514292260503
 10
-74.3000002443185
 20
-38.1514292260503
 42
0.414213562373054
 10
-74.0000002443185
 20
-37.8514292260503
 10
-74.0000002443185
 20
-37.4514292260503
 42
-0.414213562373054
 10
-73.7000002443185
 20
-37.1514292260503
 10
-69.0000002443185
 20
-37.1514292260503
 42
0.414213562373106
 10
-68.0000002443185
 20
-36.1514292260503
 10
-68.0000002443185
 20
-35.2514292260503
 42
0.41421356237309
 10
-68.5000002443185
 20
-34.7514292260503
 10
-68.7000002443185
 20
-34.7514292260503
 42
0.414213562373054
 10
-69.0000002443185
 20
-35.0514292260503
 10
-69.0000002443185
 20
-35.4514292260503
 42
-0.414213562373054
 10
-69.3000002443185
 20
-35.7514292260503
 10
-72.3757361756066
 20
-35.7514292260503
 42
-0.198912367379712
 10
-72.5878682099625
 20
-35.6635612604063
 10
-73.7121322786745
 20
-34.5392971916944
 42
-0.198912367379763
 10
-73.8000002443185
 20
-34.3271651573384
 10
-73.8000002443185
 20
23.2243067052377
 42
-0.198912367379635
 10
-73.7121322786745
 20
23.4364387395937
 10
-71.0150570736347
 20
26.1335139446335
 42
-0.224949845407753
 10
-70.7730739235724
 20
26.2198930673405
 10
70.4556478430058
 20
12.0970208906827
 42
-0.173131770096393
 10
70.6379287616555
 20
12.0106417679757
 10
73.7121317900374
 20
8.93643873959373
 42
-0.198912367379757
 10
73.7999997556815
 20
8.72430670523777
 10
73.7999997556815
 20
-34.3271651573384
 42
-0.198912367379617
 10
73.7121317900374
 20
-34.5392971916944
 10
72.5878677213255
 20
-35.6635612604063
 42
-0.198912367379703
 10
72.3757356869696
 20
-35.7514292260503
 10
69.2999997556815
 20
-35.7514292260503
 42
-0.414213562373054
 10
68.9999997556815
 20
-35.4514292260503
 10
68.9999997556815
 20
-35.0514292260503
 42
0.414213562373054
 10
68.6999997556815
 20
-34.7514292260503
 10
68.4999997556815
 20
-34.7514292260503
 42
0.41421356237305
 10
67.9999997556815
 20
-35.2514292260503
 10
67.9999997556815
 20
-36.1514292260503
 42
0.414213562373106
 10
68.9999997556815
 20
-37.1514292260503
 10
73.6999997556815
 20
-37.1514292260503
 42
-0.414213562373054
 10
73.9999997556815
 20
-37.4514292260503
 10
73.9999997556815
 20
-37.8514292260503
 42
0.414213562373054
 10
74.2999997556815
 20
-38.1514292260503
 10
74.6999997556815
 20
-38.1514292260503
 42
0.414213562373054
 10
74.9999997556815
 20
-37.8514292260503
 10
74.9999997556815
 20
9.22862052550131
 42
0.385313586120183
 10
71.3980146317655
 20
13.2087692863413
 10
-70.6019853682345
 20
27.4087692863413
 42
0.443716440839478
 10
-75.0000002443185
 20
23.4286205255013
  0
LWPOLYLINE
  5
27
100
AcDbEntity
  8
100
  6
CONTINUOUS
100
AcDbPolyline
 90
       13
 70
     1
 43
0.0
 10
-59.0452307798145
 20
25.0471087529648
 10
-60.9634119763412
 20
21.004616138934
 10
-62.4557387150789
 20
21.1561447000982
 10
-62.7082863170192
 20
18.6689334688686
 10
-59.7236328395437
 20
18.3658763465404
 10
-59.6226137987677
 20
19.3607608390322
 10
-54.6481913363086
 20
18.8556656351517
 10
-54.7492103770847
 20
17.8607811426599
 10
-51.7645568996093
 20
17.5577240203316
 10
-51.5120092976691
 20
20.0449352515612
 10
-53.0043360364068
 20
20.1964638127253
 10
-54.0700390587446
 20
24.5495895808578
 10
-59.0452307798145
 20
25.0471087529648
  0
LWPOLYLINE
  5
28
100
AcDbEntity
  8
100
  6
CONTINUOUS
100
AcDbPolyline
 90
       13
 70
     1
 43
0.0
 10
54.0592209323615
 20
13.7366635817472
 10
52.1235516512981
 20
9.52193983212764
 10
50.6312249125604
 20
9.67346839329178
 10
50.3786773106201
 20
7.18625716206226
 10
53.3633307880956
 20
6.88320003973399
 10
53.4643498288717
 20
7.87808453222579
 10
58.4387722913307
 20
7.37298932834534
 10
58.3377532505546
 20
6.37810483585353
 10
61.32240672803
 20
6.07504771352526
 10
61.5749543299703
 20
8.56225894475478
 10
60.0826275912325
 20
8.71378750591892
 10
59.0344126534314
 20
13.2391444096402
 10
54.0592209323615
 20
13.7366635817472
  0
LWPOLYLINE
  5
29
100
AcDbEntity
  8
100
  6
CONTINUOUS
100
AcDbPolyline
 90
        5
 70
     1
 43
0.0
 10
-8.80209039211761
 20
7.0
 10
-8.80209039211761
 20
6.0
 10
8.20901660681258
 20
6.0
 10
8.20901660681258
 20
7.0
 10
-8.80209039211761
 20
7.0
  0
LWPOLYLINE
  5
2A
100
AcDbEntity
  8
100
  6
CONTINUOUS
100
AcDbPolyline
 90
       60
 70
     0
 43
0.0
 10
-4.29653689265251
 20
-1.5
 10
3.70346310734749
 20
-1.5
 10
4.70346310734749
 20
0.0
 10
-5.29653689265251
 20
0.0
 10
-4.29653689265251
 20
-1.5
 10
-4.29653689265251
 20
-31.0
 10
-2.79653689265251
 20
-34.0
 10
-2.79653689265251
 20
-36.0
 10
-4.29653689265251
 20
-36.0
 10
-3.79653689265251
 20
-38.0
 10
-2.79653689265251
 20
-39.0
 10
-2.79653689265251
 20
-41.0
 10
-3.34138324886271
 20
-41.0
 42
0.0271772019824218
 10
-5.41405254228782
 20
-32.6456649660353
 42
0.41570038531019
 10
-5.91567951994128
 20
-32.3811012876511
 42
0.412728300954557
 10
-6.17890428556865
 20
-32.8801896146339
 42
-0.0331719885880036
 10
-3.79653689265253
 20
-43.0
 10
-2.79653689265251
 20
-44.0
 10
-2.79653689265251
 20
-46.0
 10
-4.29653689265251
 20
-46.0
 10
-3.79653689265251
 20
-48.0
 10
-2.79653689265251
 20
-49.0
 10
-2.79653689265251
 20
-51.0
 10
-4.29653689265251
 20
-51.0
 10
-3.79653689265251
 20
-53.0
 10
-2.79653689265251
 20
-54.0
 10
-2.79653689265251
 20
-56.0
 10
-4.29653689265251
 20
-56.0
 10
-3.79653689265251
 20
-58.0
 10
-2.29653689265251
 20
-60.0
 10
-0.696536892652517
 20
-60.0
 10
-0.696536892652517
 20
-25.5
 10
0.103463107347494
 20
-25.5
 10
0.103463107347488
 20
-60.0
 10
1.70346310734749
 20
-60.0
 10
3.20346310734749
 20
-58.0
 10
3.70346310734749
 20
-56.0
 10
2.20346310734749
 20
-56.0
 10
2.20346310734749
 20
-54.0
 10
3.20346310734749
 20
-53.0
 10
3.70346310734749
 20
-51.0
 10
2.20346310734749
 20
-51.0
 10
2.20346310734749
 20
-49.0
 10
3.20346310734749
 20
-48.0
 10
3.70346310734749
 20
-46.0
 10
2.20346310734749
 20
-46.0
 10
2.20346310734749
 20
-44.0
 10
3.20346310734749
 20
-43.0
 42
-0.0331719885880023
 10
5.58583050026362
 20
-32.8801896146339
 42
0.412728300954545
 10
5.32260573463627
 20
-32.3811012876511
 42
0.415700385310219
 10
4.82097875698281
 20
-32.6456649660353
 42
0.0271772019824163
 10
2.74830946355766
 20
-41.0
 10
2.20346310734749
 20
-41.0
 10
2.20346310734749
 20
-39.0
 10
3.20346310734749
 20
-38.0
 10
3.70346310734749
 20
-36.0
 10
2.20346310734749
 20
-36.0
 10
2.20346310734749
 20
-34.0
 10
3.70346310734749
 20
-31.0
 10
3.70346310734749
 20
-1.5
  0
LWPOLYLINE
  5
2B
100
AcDbEntity
  8
100
  6
CONTINUOUS
100
AcDbPolyline
 90
       13
 70
     0
 43
0.0
 10
5.3326282319463
 20
11.0
 10
-5.92570201725132
 20
11.0
 42
-0.249836762162561
 10
-4.04931364238503
 20
10.0
 42
-0.266469355010599
 10
3.45623985708002
 20
10.0
 42
-0.532938710021194
 10
7.20901660681258
 20
10.0
 10
7.20901660681258
 20
7.0
 10
3.45623985708002
 20
7.0
 10
3.45623985708002
 20
10.0
 42
0.266469355010599
 10
-4.04931364238503
 20
10.0
 10
-4.04931364238503
 20
7.0
 10
-7.80209039211761
 20
7.0
 10
-7.80209039211761
 20
10.0
 42
-0.249836762162561
 10
-5.92570201725132
 20
11.0
  0
DIMENSION
  5
3C
100
AcDbEntity
  8
3
  6
CONTINUOUS
100
AcDbDimension
  2
*D1
 10
103.881958065716
 20
12.8485707739497
 11
103.881958007813
 21
20.3485727310181
 70
    32
  3
ISO-25_0-333333
100
AcDbAlignedDimension
 13
-75.0000002443185
 23
27.8485707739497
 14
74.9999997556815
 24
12.8485707739497
 50
270.0
100
AcDbRotatedDimension
  0
DIMENSION
  5
4C
100
AcDbEntity
  8
3
  6
CONTINUOUS
100
AcDbDimension
  2
*D2
 10
74.9999997556815
 20
57.5497770889999
 11
0.0
 21
57.5497779846191
 70
    32
  3
ISO-25_0-333333
100
AcDbAlignedDimension
 13
-75.0000002443185
 23
23.4286205255013
 14
74.9999997556815
 24
9.22862052550131
 50
2.71407332818220E-015
100
AcDbRotatedDimension
  0
DIMENSION
  5
5C
100
AcDbEntity
  8
3
  6
CONTINUOUS
100
AcDbDimension
  2
*D3
 10
103.881958007813
 20
-38.1514292260503
 11
103.881958007813
 21
-12.6514292011905
 70
    32
  3
ISO-25_0-333333
100
AcDbAlignedDimension
 13
79.5
 23
12.8485708236694
 14
74.6999997556815
 24
-38.1514292260503
 50
270.0
100
AcDbRotatedDimension
  0
DIMENSION
  5
6C
100
AcDbEntity
  8
3
  6
CONTINUOUS
100
AcDbDimension
  2
*D4
 10
-96.6369425054194
 20
0.0
 11
-96.6369425054194
 21
13.9242853869748
 70
    32
  3
ISO-25_0-333333
100
AcDbAlignedDimension
 13
-75.0000002443185
 23
27.8485707739497
 14
-67.7977921145376
 24
0.0
 50
270.0
100
AcDbRotatedDimension
  0
DIMENSION
  5
7B
100
AcDbEntity
  8
3
  6
CONTINUOUS
100
AcDbDimension
  2
*D5
 10
-96.6369425054194
 20
-38.1514292260503
 11
-96.6369425054194
 21
-19.0757146130252
 70
    32
  3
ISO-25_0-333333
100
AcDbAlignedDimension
 13
-67.7977921145376
 23
0.0
 14
-75.0000002443185
 24
-38.1514292260503
 50
270.0
100
AcDbRotatedDimension
1001
ACAD
1000
DSTYLE
1002
{
1070
    75
1070
     1
1002
}
  0
DIMENSION
  5
8B
100
AcDbEntity
  8
3
  6
CONTINUOUS
100
AcDbDimension
  2
*D6
 10
-117.616690740439
 20
27.8485707739497
 11
-117.616690740439
 21
-5.15142922605034
 70
    32
  3
ISO-25_0-333333
100
AcDbAlignedDimension
 13
-79.5000001102081
 23
-38.1514292260503
 14
-79.5000001102081
 24
27.8485707739497
 50
90.0
100
AcDbRotatedDimension
  0
MTEXT
  5
8C
100
AcDbEntity
  8
4
  6
CONTINUOUS
100
AcDbMText
 10
-31.1683640308954
 20
-95.6537683633743
 40
13.4999995976687
 41
0.0
 11
1.0
 21
0.0
 71
     7
 72
     5
  7
STANDARD
  1
{\T1.03125;\W0.666667;AL-150}
  0
LWPOLYLINE
  5
8E
100
AcDbEntity
  8
1
  6
CONTINUOUS
100
AcDbPolyline
 90
        5
 70
     1
 43
0.0
 10
-37.1385495885861
 20
-78.480778347011
 10
27.9580699426157
 20
-78.480778347011
 10
27.9580699426157
 20
-99.326758782069
 10
-37.1385495885861
 20
-99.326758782069
 10
-37.1385495885861
 20
-78.480778347011
  0
ENDSEC
  0
SECTION
  2
OBJECTS
  0
DICTIONARY
  5
C
100
AcDbDictionary
  3
ACAD_GROUP
350
D
  3
ACAD_MLINESTYLE
350
E
  3
ACDBVARIABLEDICTIONARY
350
90
  0
DICTIONARY
  5
D
102
{ACAD_REACTORS
330
C
102
}
100
AcDbDictionary
  0
DICTIONARY
  5
E
102
{ACAD_REACTORS
330
C
102
}
100
AcDbDictionary
  3
STANDARD
350
13
  0
DICTIONARY
  5
90
102
{ACAD_REACTORS
330
C
102
}
330
C
100
AcDbDictionary
  3
SORTENTS
350
91
  0
MLINESTYLE
  5
13
102
{ACAD_REACTORS
330
E
102
}
100
AcDbMlineStyle
  2
STANDARD
 70
     0
  3

 62
   256
 51
90.0
 52
90.0
 71
     2
 49
0.5
 62
   256
  6
BYLAYER
 49
-0.5
 62
   256
  6
BYLAYER
  0
DICTIONARYVAR
  5
91
102
{ACAD_REACTORS
330
90
102
}
100
DictionaryVariables
280
     0
  1
96
  0
ENDSEC
  0
EOF
